Сегодня идет свободное скачивание без начисления Download

Полуночный ковбой / Midnight Cowboy (1969) [H.264] BDRip

Ответить на тему
 
Автор
Сообщение

UndegraundMen ®

Стаж: 3 года 9 месяцев

Сообщений: 28329

Торрент-статистика

Пост 25-Май-2013 00:21

[Цитировать]

Полуночный ковбой / Midnight Cowboy- Русское название: Полуночный ковбой
Оригинальное название: Midnight Cowboy
Год выпуска: 1969
Страна: США
Жанр: драма
Продолжительность: 01:53:21
Перевод: многоголосый закадровый (DVD Magic), двухголосый закадровый (Somewax); авторский, одноголосый закадровый (Багичев)
Субтитры: русские, английские
Вид субтитров: вшитые
Режиссер: Джон Шлезингер / John Schlesinger
Актеры: Дастин Хоффман, Джон Войт, Сильвия Майлз, Джон, МакГайвер, Бренда Ваккаро, Барнард Хьюз, Рут Уайт, Дженнифер Солт, Гилмен Рэнкин, Т. Том Марлоу
Описание фильма:
Джо Бак, жизнерадостный и наивный парень из крохотного техасского городка, направляется в Нью-Йорк, чтобы использовать свои незаурядные сексуальные способности для удовлетворения потребностей богатых женщин за плату. Но дела у него идут не слишком хорошо, и вскоре уличный бомж-туберкулезник Риццо убеждает Джо, что ему необходим менеджер.
Хотя Джо не в восторге от того, что ему приходится обслужить в сортире гомосексуалистов, он и Риццо становятся настоящими друзьями. Они хотят заработать много денег и уехать во Флориду…- -

Интересные факты о фильме

* Фильм шёл всего в двух кинотеатрах и в результате стал единственным в истории Голливуда фильмом категории X, получившим «Оскара».
  • * Фильм снят по одноимённому роману Дж. Лео Херлихая.
  • * Слоган при переиздании фильма в 80-х гласил: «Для тех, кто никогда этого не видел, и тех, кто никогда не забывал» («For those who have never seen it and those who have never forgotten it»).
Качество: BDRip-AVC (Blu-ray)
Формат: MKV
Видео кодек: H.264
Аудио кодек: AC3
Видео: 1008x546 (1.85:1), 4025 kbps, 23.976 fps
Аудио №1: Russian, AC3, 6ch, 48Hz, 384 kbps (Многоголосый, DVD Magic)
Аудио №2: Russian, AC3, 2ch, 48Hz, 192 kbps (Многоголосый, Somewax)
Аудио №3: Russian, AC3, 6ch, 48Hz, 448 kbps (Одноголосый, Багичев)
Аудио №4: English, AC3, 6ch, 48Hz, 448 kbps (Оригинал)
Субтитры №1: Russian, SRT
Субтитры №2: English, SRT
Субтитры №3: English, SRT, SDH-

Сравнение с исходником

Rip
       
Source
       

Mediainfo

Format : Matroska
Format version : Version 4 / Version 2
File size : 4.35 GiB
Duration : 1h 53mn
Overall bit rate : 5 500 Kbps
Movie name : Midnight Cowboy (1969) BDRip
Encoded date : UTC 2013-05-23 16:04:28
Writing application : mkvmerge v6.2.0 ('Promised Land') built on Apr 28 2013 12:22:01
Writing library : libebml v1.3.0 + libmatroska v1.4.0
Attachment : Yes
Video
ID : 1
Format : AVC
Format/Info : Advanced Video Codec
Format profile : [url=mailto:[email protected]][email protected][/url]
Format settings, CABAC : Yes
Format settings, ReFrames : 13 frames
Codec ID : V_MPEG4/ISO/AVC
Duration : 1h 53mn
Bit rate : 3 918 Kbps
Width : 1 008 pixels
Height : 546 pixels
Display aspect ratio : 1.85:1
Frame rate mode : Constant
Frame rate : 23.976 fps
Color space : YUV
Chroma subsampling : 4:2:0
Bit depth : 8 bits
Scan type : Progressive
Bits/(Pixel*Frame) : 0.297
Stream size : 3.10 GiB (71%)
Writing library : x264 core 132 r2309kMod 3b1f1f7
Encoding settings : cabac=1 / ref=13 / deblock=1:-3:-2 / analyse=0x3:0x133 / me=umh / subme=11 / psy=1 / fade_compensate=0.00 / psy_rd=1.10:0.10 / mixed_ref=1 / me_range=32 / chroma_me=1 / trellis=2 / 8x8dct=1 / cqm=0 / deadzone=21,11 / fast_pskip=0 / chroma_qp_offset=-3 / threads=6 / lookahead_threads=1 / sliced_threads=0 / nr=0 / decimate=1 / interlaced=0 / bluray_compat=0 / constrained_intra=0 / bframes=12 / b_pyramid=2 / b_adapt=2 / b_bias=0 / direct=1 / weightb=1 / open_gop=0 / weightp=2 / keyint=250 / keyint_min=23 / scenecut=40 / intra_refresh=0 / rc_lookahead=40 / rc=crf / mbtree=0 / crf=20.6000 / qcomp=0.65 / qpmin=0 / qpmax=69 / qpstep=4 / vbv_maxrate=50000 / vbv_bufsize=62500 / crf_max=0.0 / nal_hrd=none / ip_ratio=1.40 / pb_ratio=1.20 / aq=2:0.90
Language : English
Default : Yes
Forced : No
Matrix coefficients : BT.709
Audio #1
ID : 2
Format : AC-3
Format/Info : Audio Coding 3
Mode extension : CM (complete main)
Format settings, Endianness : Big
Codec ID : A_AC3
Duration : 1h 53mn
Bit rate mode : Constant
Bit rate : 384 Kbps
Channel(s) : 6 channels
Channel positions : Front: L C R, Side: L R, LFE
Sampling rate : 48.0 KHz
Bit depth : 16 bits
Compression mode : Lossy
Stream size : 311 MiB (7%)
Title : MVO (DVD Magic)
Language : Russian
Default : Yes
Forced : No
Audio #2
ID : 3
Format : AC-3
Format/Info : Audio Coding 3
Mode extension : CM (complete main)
Format settings, Endianness : Big
Codec ID : A_AC3
Duration : 1h 53mn
Bit rate mode : Constant
Bit rate : 192 Kbps
Channel(s) : 2 channels
Channel positions : Front: L R
Sampling rate : 48.0 KHz
Bit depth : 16 bits
Compression mode : Lossy
Stream size : 156 MiB (3%)
Title : MVO (Somewax)
Language : Russian
Default : No
Forced : No
Audio #3
ID : 4
Format : AC-3
Format/Info : Audio Coding 3
Mode extension : CM (complete main)
Format settings, Endianness : Big
Codec ID : A_AC3
Duration : 1h 53mn
Bit rate mode : Constant
Bit rate : 448 Kbps
Channel(s) : 6 channels
Channel positions : Front: L C R, Side: L R, LFE
Sampling rate : 48.0 KHz
Bit depth : 16 bits
Compression mode : Lossy
Stream size : 363 MiB (8%)
Title : AVO (Bagichev)
Language : Russian
Default : No
Forced : No
Audio #4
ID : 5
Format : AC-3
Format/Info : Audio Coding 3
Mode extension : CM (complete main)
Format settings, Endianness : Big
Codec ID : A_AC3
Duration : 1h 53mn
Bit rate mode : Constant
Bit rate : 448 Kbps
Channel(s) : 6 channels
Channel positions : Front: L C R, Side: L R, LFE
Sampling rate : 48.0 KHz
Bit depth : 16 bits
Compression mode : Lossy
Stream size : 363 MiB (8%)
Title : Original
Language : English
Default : No
Forced : No
Text #1
ID : 6
Format : UTF-8
Codec ID : S_TEXT/UTF8
Codec ID/Info : UTF-8 Plain Text
Language : Russian
Default : No
Forced : No
Text #2
ID : 7
Format : UTF-8
Codec ID : S_TEXT/UTF8
Codec ID/Info : UTF-8 Plain Text
Language : English
Default : No
Forced : No
Text #3
ID : 8
Format : UTF-8
Codec ID : S_TEXT/UTF8
Codec ID/Info : UTF-8 Plain Text
Title : SDH
Language : English
Default : No
Forced : No
Menu
00:00:00.000 : en:Start
00:03:54.275 : en:Long and Lonely Road
00:12:44.388 : en:Welcome to New York
00:18:27.731 : en:One Gorgeous Chick
00:24:59.497 : en:A New Friend
00:27:40.075 : en:I'm walkin' here!
00:29:45.200 : en:The Holiest of Scams
00:35:42.265 : en:Dog-Eat-Dog-World
00:40:27.007 : en:A New Approach
00:45:00.698 : en:A Poor Arrangement
00:49:57.411 : en:The Only One
00:51:31.379 : en:The Name Is Rico
00:54:57.585 : en:A Hustler Without Hustle
00:59:21.391 : en:Scrounging for a Living
01:02:55.104 : en:A High-Class Hookup
01:04:56.058 : en:Living the Dream
01:07:28.169 : en:Cold, Harsh Reality
01:10:30.768 : en:Last Chance for Cash
01:13:53.679 : en:Visiting the Past
01:18:16.608 : en:A Wacko Party
01:24:52.754 : en:A New Client
01:28:48.823 : en:First Time for Everything
01:30:43.896 : en:Things Ending in Y
01:33:34.191 : en:Word Finally Spreads
01:34:52.269 : en:Too Sick to Walk
01:38:27.234 : en:A Desperate House Call
01:42:33.605 : en:Miami or Bust
01:46:20.374 : en:Peace at Last

x264 log

x264 [info]: frame I:967 Avg QP:19.66 size: 60789
x264 [info]: frame P:29344 Avg QP:21.64 size: 31506
x264 [info]: frame B:132755 Avg QP:23.17 size: 18366
x264 [info]: consecutive B-frames: 1.2% 1.0% 3.2% 11.4% 11.2% 48.9% 6.3% 3.3% 2.8% 1.9% 2.3% 4.9% 1.5%
x264 [info]: mb I I16..4: 3.7% 87.2% 9.1%
x264 [info]: mb P I16..4: 0.4% 19.4% 1.1% P16..4: 30.1% 36.0% 10.5% 0.7% 0.0% skip: 1.7%
x264 [info]: mb B I16..4: 0.1% 4.7% 0.1% B16..8: 43.1% 21.9% 4.1% direct: 8.0% skip:18.0% L0:47.3% L1:45.4% BI: 7.3%
x264 [info]: 8x8 transform intra:93.7% inter:66.8%
x264 [info]: coded y,uvDC,uvAC intra: 93.5% 73.4% 32.4% inter: 45.8% 28.7% 0.7%
x264 [info]: i16 v,h,dc,p: 40% 15% 6% 39%
x264 [info]: i8 v,h,dc,ddl,ddr,vr,hd,vl,hu: 13% 6% 10% 10% 14% 12% 12% 11% 12%
x264 [info]: i4 v,h,dc,ddl,ddr,vr,hd,vl,hu: 28% 8% 3% 7% 12% 13% 11% 9% 9%
x264 [info]: i8c dc,h,v,p: 36% 27% 19% 17%
x264 [info]: Weighted P-Frames: Y:14.2% UV:7.6%
x264 [info]: ref P L0: 36.7% 9.8% 17.8% 7.9% 6.6% 4.8% 4.4% 2.4% 2.3% 1.9% 1.9% 1.6% 1.7% 0.3% 0.0%
x264 [info]: ref B L0: 59.8% 14.6% 8.2% 4.5% 3.3% 2.8% 2.2% 1.4% 1.2% 1.1% 0.6% 0.3%
x264 [info]: ref B L1: 89.1% 10.9%
x264 [info]: kb/s:4024.52
x264 [info]: encoded 163066 frames, 4.33 fps, 4024.52 kb/s, duration 10:27:29.58
-
-Релиз от группы -
Вне форума [Профиль] [ЛС]
Показать сообщения:    
Ответить на тему

Текущее время: Сегодня 20:55

Часовой пояс: GMT + 3



Вы не можете начинать темы
Вы не можете отвечать на сообщения
Вы не можете редактировать свои сообщения
Вы не можете удалять свои сообщения
Вы не можете голосовать в опросах
Вы не можете прикреплять файлы к сообщениям
Вы не можете скачивать файлы