Сегодня идет свободное скачивание без начисления Download

Оливер Твист / Oliver Twist (1948) [720p] BDRip

Ответить на тему
 
Автор
Сообщение

UndegraundMen ®

Стаж: 3 года 9 месяцев

Сообщений: 28329

Торрент-статистика

Пост 25-Май-2013 00:21

[Цитировать]

Оливер Твист / Oliver Twist (1948) BDRip-«A Screen Event To Be Remembered For All Time !»
Русское название: Оливер Твист
Оригинальное название: Oliver Twist
Год выпуска: 1948
Жанр: Драма, Семейный, Приключения
Описание фильма:
Одна из лучших экранизаций романа «Приключения Оливера Твиста» Чарльза Диккенса – классика британского кинематографа. Знаменитому английскому режиссеру Дэвиду Лину удалось передать мрачную атмосферу Лондона эпохи королевы Виктории. В послевоенной Англии судьба маленького сироты нашла отклик у людей, которые сами пережили множество лишений. Вторая адаптация произведений Чарльза Диккенса режиссером Дэвидом Лином (первая — «Большие надежды» — вышла на экраны в 1946 году). Фильм был снят в Англии в 1948, однако в США на экраны вышел только через три года из-за предположительно антисемитского изображения Феджина (Алек Гиннес).
Режиссер: Дэвид Лин
Актеры: Роберт Ньютон, Алек Гиннесс, Кэй Уолш, Френсис Л. Салливан, Джон Ховард Дейвис, Генри Стивенсон, Мэри Клер, Энтони Ньюли, Жозефин Стюарт, Ральф Труман, Кэтлин Харрисон, Гибб МакЛафлин, Диана Дорс, Фредерик Ллойд, Айвор Барнард, Морис Денэм, У.Г. Фэй, Майкл Диар, Генри Эдвардс, Хэтти Жак, Майкл Риппер, Питер Булл, Деидре Дойл, Кеннет Дауни, Эди Мартин, Фэй Миддлтон, Джон Поттер, Морис Джонс, Бетти Пол
Продолжительность: 01:51:07
Перевод: Дублированный

Дата мировой премьеры: 28 июня 1948
Видеокодек: MPEG-4 AVC/H.264
Битрейт видео: ~5529 Кбит/с
Размер кадра: 960x720
Качество видео: BDRip
Аудио 1: AC3 Русский 2.0 / 48 kHz / 128 kbps / 16-bit Дублированный
Аудио 2: DTS Английский 2.0 / 48 kHz /1509 kbps / 24-bit Оригинал
Сэмпл: Ссылка

MediaInfo

Общее
Уникальный идентификатор : 213541514612638690732037855486046316039 (0xA0A69988503FC84E99CAFCFA39C72607)
Полное имя : C:\Xvid4PSP\Oliver.Twist.1948.x264.720p.mkv
Формат : Matroska
Версия формата : Version 4 / Version 2
Размер файла : 5,56 Гбайт
Продолжительность : 1 ч. 51 м.
Общий поток : 7169 Кбит/сек
Дата кодирования : UTC 2013-05-23 19:03:34
Программа кодирования : mkvmerge v6.2.0 ('Promised Land') built on Apr 28 2013 12:22:01
Библиотека кодирования : libebml v1.3.0 + libmatroska v1.4.0
Видео
Идентификатор : 1
Формат : AVC
Формат/Информация : Advanced Video Codec
Профиль формата : [url=mailto:[email protected]][email protected][/url]
Параметр CABAC формата : Да
Параметр ReFrames формата : 5 кадров
Идентификатор кодека : V_MPEG4/ISO/AVC
Продолжительность : 1 ч. 51 м.
Битрейт : 5529 Кбит/сек
Ширина : 960 пикселей
Высота : 720 пикселей
Соотношение сторон : 4:3
Режим частоты кадров : Постоянный
Частота кадров : 25,000 кадров/сек
Цветовое пространство : YUV
Субдискретизация насыщенности : 4:2:0
Битовая глубина : 8 бит
Тип развёртки : Прогрессивная
Бит/(Пиксели*Кадры) : 0.320
Размер потока : 4,18 Гбайт (75%)
Библиотека кодирования : x264 core 129 r2230 1cffe9f
Настройки программы : cabac=1 / ref=5 / deblock=1:0:0 / analyse=0x3:0x113 / me=umh / subme=7 / psy=1 / psy_rd=1.00:0.00 / mixed_ref=1 / me_range=16 / chroma_me=1 / trellis=1 / 8x8dct=1 / cqm=0 / deadzone=21,11 / fast_pskip=0 / chroma_qp_offset=-2 / threads=18 / lookahead_threads=3 / sliced_threads=0 / nr=0 / decimate=1 / interlaced=0 / bluray_compat=0 / constrained_intra=0 / bframes=3 / b_pyramid=2 / b_adapt=1 / b_bias=0 / direct=1 / weightb=1 / open_gop=0 / weightp=2 / keyint=250 / keyint_min=25 / scenecut=40 / intra_refresh=0 / rc_lookahead=40 / rc=2pass / mbtree=1 / bitrate=5529 / ratetol=1.0 / qcomp=0.60 / qpmin=0 / qpmax=69 / qpstep=4 / cplxblur=20.0 / qblur=0.5 / ip_ratio=1.40 / aq=1:1.00
Язык : English
Default : Да
Forced : Нет
Аудио #1
Идентификатор : 2
Формат : AC-3
Формат/Информация : Audio Coding 3
Расширение режима : CM (complete main)
Параметр Endianness формата : Big
Идентификатор кодека : A_AC3
Продолжительность : 1 ч. 51 м.
Вид битрейта : Постоянный
Битрейт : 128 Кбит/сек
Каналы : 2 канала
Расположение каналов : Front: L R
Частота : 48,0 КГц
Битовая глубина : 16 бит
Метод сжатия : С потерями
Размер потока : 102 Мбайт (2%)
Заголовок : DUB
Язык : Russian
Default : Да
Forced : Нет
Аудио #2
Идентификатор : 3
Формат : DTS
Формат/Информация : Digital Theater Systems
Режим : 16
Параметр Endianness формата : Big
Идентификатор кодека : A_DTS
Продолжительность : 1 ч. 51 м.
Вид битрейта : Постоянный
Битрейт : 1509 Кбит/сек
Каналы : 2 канала
Расположение каналов : Front: L R
Частота : 48,0 КГц
Битовая глубина : 24 бит
Метод сжатия : С потерями
Размер потока : 1,17 Гбайт (21%)
Язык : English
Default : Нет
Forced : Нет
Меню #1
00:00:00.000 : en:00:00:00.000
00:02:52.005 : en:00:02:52.005
00:09:17.056 : en:00:09:17.056
00:14:30.286 : en:00:14:30.286
00:22:11.622 : en:00:22:11.622
00:29:30.102 : en:00:29:30.102
00:46:25.741 : en:00:46:25.741
00:52:25.142 : en:00:52:25.142
01:02:05.722 : en:01:02:05.722
01:15:37.366 : en:01:15:37.366
01:23:45.520 : en:01:23:45.520
01:36:35.790 : en:01:36:35.790
01:38:53.344 : en:01:38:53.344
Меню #2
00:00:00.000 : en:00:00:00.000
00:09:35.200 : en:00:09:35.200
00:30:11.120 : en:00:30:11.120
00:34:20.320 : en:00:34:20.320
00:47:12.040 : en:00:47:12.040
00:54:05.560 : en:00:54:05.560
01:00:28.640 : en:01:00:28.640
01:11:59.000 : en:01:11:59.000
01:20:23.040 : en:01:20:23.040
01:28:13.400 : en:01:28:13.400
01:35:17.800 : en:01:35:17.800
01:45:03.920 : en:01:45:03.920
Скриншоты:
         
Время раздачи: 24/7
Вне форума [Профиль] [ЛС]
Похожие темы
Форум Тема Автор Торрент Отв. Посл. сообщение
./templates/default/images/folder_dl.gif Приключения, детектив, боевик, триллер Оливер Пётч | Дочь палача и черный монах (2014) [FB2] Omen
1 | 0

0 | 682

1

2014-09-21 11:02
Omen Последнее
./templates/default/images/folder_dl.gif Приключения, детектив, боевик, триллер Оливер Пётч | Дочь палача и король нищих (2014) [FB2] Omen
1 | 0

0 | 671

7

2014-12-03 11:32
Omen Последнее
./templates/default/images/folder_dl.gif Психология, Тренинг, Саморазвитие Оливер Гейссельхарт | Память. Тренируй и совершенствуй! (2016) [FB2] moralis
1 | 0

0 | 187

6

2016-02-17 21:49
moralis Последнее
Показать сообщения:    
Ответить на тему

Текущее время: Сегодня 09:44

Часовой пояс: GMT + 3



Вы не можете начинать темы
Вы не можете отвечать на сообщения
Вы не можете редактировать свои сообщения
Вы не можете удалять свои сообщения
Вы не можете голосовать в опросах
Вы не можете прикреплять файлы к сообщениям
Вы не можете скачивать файлы