Сегодня идет свободное скачивание без начисления Download

Побег / The Getaway (1972) [1080p] BDRip

Ответить на тему
 
Автор
Сообщение

UndegraundMen ®

Стаж: 3 года 9 месяцев

Сообщений: 28329

Торрент-статистика

Пост 25-Май-2013 00:21

[Цитировать]

Побег / The Getaway (1972) BDRip-«They're Hot - McQueen/MacGraw»
Русское название: Побег
Оригинальное название: The Getaway
Год выпуска: 1972
Жанр: Боевик, Триллер, Криминал
Описание фильма:
Очень крутого и знаменитого грабителя банка по имени Док МакКой некие сильные мира сего освобождают из тюряги, где он мотал очередной срок, для совершения ограбления, чтобы списать на него крупную недостачу и затем убрать. Использовали для этого его жену, которая пошла на это, лишь бы вытянуть любимого из-за решетки. Но хотели как лучше, а получилось как всегда: вместе они взяли банк и рванули к мексиканской границе, хотя на хвосте у них сидят не только полицейские, но и боевики мафии.
Режиссер: Сэм Пекинпа
Актеры: Стив МакКуин, Эли МакГроу, Бен Джонсон, Сэлли Стразерс, Аль Леттьери, Слим Пикенс, Ричард Брайт, Джек Додсон, Даб Тэйлор, Бо Хопкинс, Рой Дженсон, Джон Брайсон, Билл Харт, Том Раньон, Уитни Джонс, Рэймонд Кинг, Иван Томас, Бренда В. Кинг, Брик Лоури, Мартин Колли, Дик Крокетт, Мэгги Гонзалез, Даг Дадли, Стэйси Ньютон, Томми Буш, Хэл Смит
Продолжительность: 02:02:49
Перевод: Многоголосый закадровый
Язык субтитров: Английские
Вид субтитров: Вшитые

Дата мировой премьеры: 13 декабря 1972
Видеокодек: MPEG-4 AVC/H.264
Битрейт видео: ~10.0 Мбит/с
Размер кадра: 1908x798
Качество видео: BDRip
Аудио 1: AC3 Русский 2.0 / 48 kHz / 192 kbps / 16-bit Многоголосый закадровый
Аудио 1: AC3 Английский 1.0 / 48 kHz / 192 kbps / 16-bit Оригинал
Сэмпл: Ссылка

MediaInfo

Общее
Уникальный идентификатор : 241976128729718112012963590263732791161 (0xB60AE83F39C2819EB8B6AC74C7816779)
Полное имя : C:\Xvid4PSP\Pobeg.1972.x264.BDRip.(1080p).mkv
Формат : Matroska
Версия формата : Version 4 / Version 2
Размер файла : 8,91 Гбайт
Продолжительность : 2 ч. 2 м.
Общий поток : 10,4 Мбит/сек
Дата кодирования : UTC 2013-05-23 08:31:19
Программа кодирования : mkvmerge v6.2.0 ('Promised Land') built on Apr 28 2013 12:22:01
Библиотека кодирования : libebml v1.3.0 + libmatroska v1.4.0
Видео
Идентификатор : 1
Формат : AVC
Формат/Информация : Advanced Video Codec
Профиль формата : [url=mailto:[email protected]][email protected][/url]
Параметр CABAC формата : Да
Параметр ReFrames формата : 4 кадра
Идентификатор кодека : V_MPEG4/ISO/AVC
Продолжительность : 2 ч. 2 м.
Битрейт : 10,0 Мбит/сек
Ширина : 1908 пикселей
Высота : 798 пикселей
Соотношение сторон : 2,40:1
Режим частоты кадров : Постоянный
Частота кадров : 23,976 кадра/сек
Цветовое пространство : YUV
Субдискретизация насыщенности : 4:2:0
Битовая глубина : 8 бит
Тип развёртки : Прогрессивная
Бит/(Пиксели*Кадры) : 0.274
Размер потока : 8,41 Гбайт (94%)
Библиотека кодирования : x264 core 114 r1913 5fd3dce
Настройки программы : cabac=1 / ref=4 / deblock=1:-3:-3 / analyse=0x3:0x113 / me=umh / subme=10 / psy=1 / psy_rd=1.20:0.20 / mixed_ref=1 / me_range=32 / chroma_me=1 / trellis=2 / 8x8dct=1 / cqm=0 / deadzone=21,11 / fast_pskip=0 / chroma_qp_offset=-3 / threads=6 / sliced_threads=0 / nr=0 / decimate=0 / interlaced=0 / constrained_intra=0 / bframes=5 / b_pyramid=2 / b_adapt=2 / b_bias=0 / direct=1 / weightb=1 / open_gop=0 / weightp=2 / keyint=250 / keyint_min=2 / scenecut=40 / intra_refresh=0 / rc_lookahead=72 / rc=2pass / mbtree=1 / bitrate=10003 / ratetol=1.0 / qcomp=0.60 / qpmin=10 / qpmax=51 / qpstep=4 / cplxblur=20.0 / qblur=0.5 / vbv_maxrate=38000 / vbv_bufsize=38000 / nal_hrd=none / ip_ratio=1.40 / aq=1:1.00
Язык : English
Default : Нет
Forced : Нет
Аудио #1
Идентификатор : 2
Формат : AC-3
Формат/Информация : Audio Coding 3
Расширение режима : CM (complete main)
Параметр Endianness формата : Big
Идентификатор кодека : A_AC3
Продолжительность : 2 ч. 2 м.
Вид битрейта : Постоянный
Битрейт : 192 Кбит/сек
Каналы : 2 канала
Расположение каналов : Front: L R
Частота : 48,0 КГц
Битовая глубина : 16 бит
Метод сжатия : С потерями
Размер потока : 169 Мбайт (2%)
Заголовок : MVO TK "Russia"
Язык : Russian
Default : Да
Forced : Нет
Аудио #2
Идентификатор : 3
Формат : AC-3
Формат/Информация : Audio Coding 3
Расширение режима : CM (complete main)
Параметр Endianness формата : Big
Идентификатор кодека : A_AC3
Продолжительность : 2 ч. 2 м.
Вид битрейта : Постоянный
Битрейт : 192 Кбит/сек
Каналы : 1 канал
Расположение каналов : Front: C
Частота : 48,0 КГц
Битовая глубина : 16 бит
Метод сжатия : С потерями
Размер потока : 169 Мбайт (2%)
Заголовок : Original
Язык : English
Default : Нет
Forced : Нет
Текст
Идентификатор : 4
Формат : UTF-8
Идентификатор кодека : S_TEXT/UTF8
Идентификатор кодека/Информация : UTF-8 Plain Text
Язык : English
Default : Нет
Forced : Нет
Скриншоты:
         
Время раздачи: 24/7
Вне форума [Профиль] [ЛС]
Похожие темы
Форум Тема Автор Торрент Отв. Посл. сообщение
./templates/default/images/folder_dl.gif Фантастика, фэнтези, ужасы, мистика Вадим Денисов | Побег (2016) [FB2] moralis
1 | 0

1 | 223

5

2016-04-10 23:05
Aikivas Последнее
Показать сообщения:    
Ответить на тему

Текущее время: Сегодня 17:25

Часовой пояс: GMT + 3



Вы не можете начинать темы
Вы не можете отвечать на сообщения
Вы не можете редактировать свои сообщения
Вы не можете удалять свои сообщения
Вы не можете голосовать в опросах
Вы не можете прикреплять файлы к сообщениям
Вы не можете скачивать файлы