Сегодня идет свободное скачивание без начисления Download

Крёстный Отец - Хронологическая Сага 1901-1980 / The Godfather Trilogy: 1901-1980 (Фрэнсис Форд Коппола) (Гангстерская эпическая драма, 1992) DVDRip

Ответить на тему
 
Автор
Сообщение

Omen ®

Стаж: 4 года 1 месяц

Сообщений: 194394

Торрент-статистика

Пост 26-Май-2013 17:53

[Цитировать]

Крёстный Отец - Хронологическая Сага 1901-1980
The Godfather Trilogy: 1901-1980
- Русское название: Крёстный Отец - Хронологическая Сага 1901-1980
Оригинальное название: The Godfather Trilogy: 1901-1980
Год выпуска: 1992
Жанр: Гангстерская эпическая драма
Описание фильма:
Полная версия всех частей великолепной трилогии с удалёнными сценами, смонтированная в хронологическом порядке.
В 1977 году на NBC была показана The Godfather Saga , также известная как The Godfather: The Complete Novel For Television, The Godfather: A Novel for Television и The Godfather Novella. Этот релиз стал основой для более короткого релиза The Godfather 1902–1959: The Complete Epic, вышедшего на VHS в 1981 году. Вслед за выходом третьей части Крёстного Отца Френсис Форд Коппола, Барри Малкин и Уолтер Мёрч отредактировали три части Крёстного Отца в хронологическом порядке с целью выпустить The Godfather Trilogy: 1901–1980.
Релиз включал в себя сцены, ранее не входившие в прокатные издания. Трилогия была выпущена в 1992 году на VHS и Laserdisc и является на данный момент коллекционной редкостью, поскольку не переиздавалась на DVD или Blu-Ray.
Режиссер: Фрэнсис Форд Коппола
Сценарий: Френсис Форд Коппола, Марио Пьюзо
Продюсер: Френсис Форд Коппола, Альберт С. Радди
Композитор: Кармине Коппола, Нино Рота
Актеры: Марлон Брандо, Аль Пачино, Роберт Де Ниро, Энди Гарсиа, Джеймс Каан, Джон Казале, Роберт Дюваль, Талия Шайр, Дайан Китон, Элай Уоллак, София Коппола и др.
Продолжительность: 01:10:00 мин; 1:52:00 мин; 01:22:00 мин; 02:27:00 мин; 03:09:00 мин. Всего: 583 минуты
Перевод: Многоголосый закадровый
Автор перевода: Профессиональный (многоголосый закадровый) [Позитив & Кравец] с Любительским (одноголосым закадровым) [assalam] (на вставленные сцены)
Релиз группа: assalam
Язык субтитров: Английские (вшитые, не отключаемые *hardsub* на итальянскую речь)
Вид субтитров: Вшитые

Видеокодек: Xvid
Битрейт видео: ~1400 kbps
Размер кадра: 720x384 (1,875:1), 23.976 fps, 0.23 bit/pixel
Качество видео: DVDRip+LDRip
Аудиокодек: MP3
Битрейт аудио: MPEG Layer 3, 2 ch, 44,1 kHz, ~128.00 kbps avg

Знаете ли Вы, что...

«Крёстный отец. Трилогия. 1901—1980» — выпущенный на видео кинофильм-спецпроект Фрэнсиса Форда Копполы, представляющий собой все три серии саги Крестный отец, перемонтированные в хронологическом относительно действия фильма порядке. «Трилогия» сделана на основе выпущенного в 1977 телесериала «Крестный отец: Сага» (перемонтированные в хронологическом порядке фильмы «Крестный отец» и «Крестный отец 2» с дополнительными сценами в 60 минут), к которому добавлен материал фильма «Крестный отец 3».

От автора рипа и о рипе

В качестве исходного материала для удалённых сцен брался релиз мистера Modernknife на demonoid.
Перевод и озвучка удалённых сцен сделаны мною [assalam] лично с либо вшитых английских субтитров, либо на слух.
Основной материал был взят из разных источников.
Вместо непереведённых кусков с дорожки Кравец вклеивались куски с дорожек Позитив и Премьер-Видео.
Сцена в опере перемонтирована на дорожку Позитив по причине лучшего качества записи музыкального сопровождения.
Начальные титры во всех частях раздачи отсутствуют.
Финальные титры присутствуют только в конце пятой части раздачи.
Релиз подготовлен лично мной [assalam] и изначально для собственного пользования!

Mediainfo

General
Complete name : D:\The Godfather - The Chronological Epic Saga 1901-1980\1901-1927.avi
Format : AVI
Format/Info : Audio Video Interleave
File size : 587 MiB
Duration : 1h 10mn
Overall bit rate : 1 161 Kbps
Writing application : VirtualDubMod 1.5.10.2 (build 2540/release)
Writing library : VirtualDubMod build 2540/release
Video
ID : 0
Format : MPEG-4 Visual
Format profile : [email protected]
Format settings, BVOP : No
Format settings, QPel : No
Format settings, GMC : No warppoints
Format settings, Matrix : Default (H.263)
Codec ID : XVID
Codec ID/Hint : XviD
Duration : 1h 10mn
Bit rate : 1 023 Kbps
Width : 720 pixels
Height : 384 pixels
Display aspect ratio : 1.875
Frame rate : 23.976 fps
Color space : YUV
Chroma subsampling : 4:2:0
Bit depth : 8 bits
Scan type : Progressive
Compression mode : Lossy
Bits/(Pixel*Frame) : 0.154
Stream size : 517 MiB (88%)
Writing library : XviD 63
Audio
ID : 1
Format : MPEG Audio
Format version : Version 1
Format profile : Layer 3
Mode : Joint stereo
Mode extension : MS Stereo
Codec ID : 55
Codec ID/Hint : MP3
Duration : 1h 10mn
Bit rate mode : Constant
Bit rate : 128 Kbps
Channel(s) : 2 channels
Sampling rate : 44.1 KHz
Compression mode : Lossy
Stream size : 64.7 MiB (11%)
Alignment : Split accross interleaves
Interleave, duration : 42 ms (1.00 video frame)
Interleave, preload duration : 500 ms
Скриншоты:
           
Вне форума [Профиль] [ЛС]

RUGUI

Стаж: 5 лет 7 месяцев

Сообщений: 511

Торрент-статистика

Пост 26-Май-2013 17:58 (спустя 5 минут)

[Цитировать]

Оказывается я не всё знал об этой трилогии, сейчас как раз решил посмотреть. 3-я попытка уже, дальше первой части не сдвигался.

_________________
Ваша раздача не проверена или что то не скачивается, пишите в ЛС.
Набор в группы: Активисты | Журналисты.
Вне форума [Профиль] [ЛС]
Похожие темы
Форум Тема Автор Торрент Отв. Посл. сообщение
./templates/default/images/folder_dl.gif Обучающее видео Радислав Гандапас - Крест лидера [2013, Бизнес, лидерство, DVDRip, RUS] (Видеоурок) Omen
2 | 0

0 | 492

31

2014-11-03 17:00
Omen Последнее
Показать сообщения:    
Ответить на тему

Текущее время: Сегодня 20:57

Часовой пояс: GMT + 3



Вы не можете начинать темы
Вы не можете отвечать на сообщения
Вы не можете редактировать свои сообщения
Вы не можете удалять свои сообщения
Вы не можете голосовать в опросах
Вы не можете прикреплять файлы к сообщениям
Вы не можете скачивать файлы