Сегодня идет свободное скачивание без начисления Download

Бумеранг / Boomerang (Реджинальд Хадлин) (Комедия, Драма, 1992) DVDRip

Ответить на тему
 
Автор
Сообщение

Omen ®

Стаж: 4 года 1 месяц

Сообщений: 194382

Торрент-статистика

Пост 26-Май-2013 20:44

[Цитировать]

Бумеранг / Boomerang - Русское название: Бумеранг
Оригинальное название: Boomerang
Год выпуска: 1992
Жанр: Комедия, Драма
Производство: США / Paramount Pictures, Imagine Films Entertainment, Eddie Murphy Productions
Описание фильма:
Маркус работает в рекламном отделе крупной фирмы. У него милая жена, но помимо жены есть еще Жаклин, есть Анжела, есть... Проще говоря, Маркус — лихой бабник, причем с той особенностью, что женщины к нему буквально липнут и никак не хотят оставить в покое. Есть у него и парочка закадычных дружков, тоже чернокожих, с которыми он делится всеми пикантными подробностями своих романов. Вернее, почти всеми, потому что одну из дам он отбил именно у друга.
Режиссер: Реджинальд Хадлин
Актеры: Эдди Мерфи, Робин Гивенс, Холли Берри, Дэвид Алан Грайр, Мартин Лоуренс, Грейс Джонс, Джеффри Холдер, Эрта Китт, Крис Рок, Тиша Кэмпбелл
Продолжительность: 01:56:32
Перевод: Многоголосый закадровый, одноголосый закадровый

Дата мировой премьеры: 1 июля 1992
Дата выхода DVD релиза: 30 марта 2010, «Юниверсал Пикчерс Рус»
Видеокодек: Xvid
Битрейт видео: ~1888 kb/s
Размер кадра: 720x416
Качество видео: DVDRip
Аудио #1: Русский ( AC3 / 2 ch / 48 kHz / 192 kbps ) - Многоголосый закадровый,
Аудио #2: Русский( AC3 /2 ch / 48 kHz / 192 kbps ) - Одноголосый закадровый, любительский

MI

Общее
Полное имя : C:\Users\Артём\Desktop\Android\bumerang.avi
Формат : AVI
Формат/Информация : Audio Video Interleave
Размер файла : 1,86 Гбайт
Продолжительность : 1 ч. 56 м.
Общий поток : 2281 Кбит/сек
Программа кодирования : VirtualDubMod 1.5.4.1 (build 2178/release)
Библиотека кодирования : VirtualDubMod build 2178/release
Видео
Идентификатор : 0
Формат : MPEG-4 Visual
Профиль формата : Advanced [email protected]
Параметр BVOP формата : 1
Параметр QPel формата : Нет
Параметр GMC формата : Без точки перехода
Параметр матрицы формата : Выборочная
Идентификатор кодека : XVID
Идентификатор кодека/Подсказка : XviD
Продолжительность : 1 ч. 56 м.
Битрейт : 1888 Кбит/сек
Ширина : 720 пикселей
Высота : 416 пикселей
Соотношение сторон : 1,731
Частота кадров : 23,976 кадра/сек
Цветовое пространство : YUV
Субдискретизация насыщенности : 4:2:0
Битовая глубина : 8 бит
Тип развёртки : Прогрессивная
Метод сжатия : С потерями
Бит/(Пиксели*Кадры) : 0.263
Размер потока : 1,54 Гбайт (83%)
Библиотека кодирования : XviD 1.2.0.dev47 (UTC 2006-11-01)
Аудио #1
Идентификатор : 1
Формат : AC-3
Формат/Информация : Audio Coding 3
Профиль формата : Dolby Digital
Расширение режима : CM (complete main)
Параметр Endianness формата : Big
Идентификатор кодека : 2000
Продолжительность : 1 ч. 56 м.
Вид битрейта : Постоянный
Битрейт : 192 Кбит/сек
Каналы : 2 канала
Расположение каналов : Front: L R
Частота : 48,0 КГц
Битовая глубина : 16 бит
Метод сжатия : С потерями
Задержка видео : 62 мс.
Размер потока : 160 Мбайт (8%)
Выравнивание : Разделение по промежуткам
Продолжительность промежутка : 96 мс. (2,30 видеокадра)
Время предзагрузки промежутка : 96 мс.
Язык : Russian
Аудио #2
Идентификатор : 2
Формат : AC-3
Формат/Информация : Audio Coding 3
Профиль формата : Dolby Digital
Расширение режима : CM (complete main)
Параметр Endianness формата : Big
Идентификатор кодека : 2000
Продолжительность : 1 ч. 56 м.
Вид битрейта : Постоянный
Битрейт : 192 Кбит/сек
Каналы : 2 канала
Расположение каналов : Front: L R
Частота : 48,0 КГц
Битовая глубина : 16 бит
Метод сжатия : С потерями
Задержка видео : 62 мс.
Размер потока : 160 Мбайт (8%)
Выравнивание : Разделение по промежуткам
Продолжительность промежутка : 96 мс. (2,30 видеокадра)
Время предзагрузки промежутка : 96 мс.
Язык : Russian
Скриншоты:
       
       
Вне форума [Профиль] [ЛС]
Показать сообщения:    
Ответить на тему

Текущее время: Сегодня 22:21

Часовой пояс: GMT + 3



Вы не можете начинать темы
Вы не можете отвечать на сообщения
Вы не можете редактировать свои сообщения
Вы не можете удалять свои сообщения
Вы не можете голосовать в опросах
Вы не можете прикреплять файлы к сообщениям
Вы не можете скачивать файлы