Сегодня идет свободное скачивание без начисления Download

Пересменка / Swing Shift (Джонатан Демме) (Драма, Мелодрама, Комедия, 1984) DVDRip [H.264]

Ответить на тему
 
Автор
Сообщение

Omen ®

Стаж: 4 года 1 месяц

Сообщений: 194394

Торрент-статистика

Пост 26-Май-2013 22:48

[Цитировать]

Пересменка / Swing Shift -«When America marched off to war the women marched into the factory. From then on...nothing was the same.»- Русское название: Пересменка
Оригинальное название: Swing Shift
Год выпуска: 1984
Жанр: Драма, Мелодрама, Комедия
Производство: США / Hawn/Sylbert Movie Company, Jerry Bick Productions, Lantana, Warner Bros. Pictures
Описание фильма:
Вторая Мировая Война. Перл-Харбор. Пятнадцать миллионов американских парней записались добровольцами на войну. Так же поступил и Джек Уолш. А его жена Кэй, как и многие американки, чтобы свести концы с концами, отправилась работать на авиационный завод. Там она заводит интрижку с трубачом «Счастливчиков» Майком. Кэй отчаянно разрывается между одиночеством и долгом перед мужем с одной стороны и влечением к своему новому объекту страсти. Их роман развивается под надежным прикрытием соседки Кэй - Кристин Лати .
Эта ретро-мелодрама, поставленная обладателем \"Оскара\" Джонатаном Демми , собрала настоящий звездный состав - известную голливудскую пару Курта Рассела и Голди Хоун, а также Эда Харриса, Фреда Уорда и Холли Хантер.
Режиссер: Джонатан Демме
Сценарий: Нэнси Дауд, Бо Голдмэн, Рон Нисуонер
Продюсер: Джерри Бик, Чарльз Малвехилл, Арлин Селлерс
Актеры: Голди Хоун, Курт Рассел, Кристин Лати, Фред Уорд, Эд Харрис, Сади Бонд, Холли Хантер, Пэтти Малони, Лиза Пеликан, Сьюзен Перец
Продолжительность: 01:40:48
Перевод: Многоголосый закадровый

Дата мировой премьеры: 13 апреля 1984
Видеокодек: MPEG-4 AVC/H.264
Битрейт видео: ~2100 Кбит/сек
Размер кадра: 720x400
Качество видео: DVDRip
Аудиокодек: AC3 2.0
Битрейт аудио: 192 Кбит/сек

Реценция с кинопоиска от SumarokovNC-17:

Смена партнеров в ритме свинга
Джонатан Демме — крайне неоднозначный режиссер. Начав свою кинокарьеру еще в начале 70-х годов под крылом у трэшмейкера Роджера Кормана и сняв при его участии парочку эксплуататорских картин, в 80-х годах Джонатан Демме наконец обретает свой стиль в режиссуре и характерные черты, выражающиеся в необычной операторской работе его постоянного оператора Така Фуджимото и участии в небольших ролях актеров, знакомых с ним еще со времен Кормана(Трейси Уолтер, Чарльз Напье, Джим Рош, Базз Килман и т. д). Благодаря этому ленты Джонатана Демме можно узнать сразу.
Военная драма «Пересменка» стала первым ощутимым хитом в карьере Демме, во многом из-за хорошо сыгранной истории любовного треугольника на фоне Второй Мировой такими актерами, как Курт Рассел(Джек Уолш), Голди Хоун(Кэй) и Эд Харрис(\"Счастливчик» Майк). Во многие моменты картина напоминает классические голливудские мелодрамы, как «Касабланка» и «Место под солнцем». Прекрасно передана военная эпоха, а потому любителям ретро пропускать этот фильм не следует. После просмотра у зрителя остается приятное послевкусие и ленту хочется посмотреть еще.
Сейчас картина основательно подзабыта, хотя это действительно хорошее, умное и интересное кино, на фоне современных блокбастеров являющийся шедевром. Я этот фильм смотрел еще в детстве, а пересмотрев сейчас, я понял, что лента не потеряла свое очарование и искренность.
10 из 10

Из книги «3500 кинорецензий»

Название этой американской ленты из времён второй мировой войны может быть переведено согласно словарю (Swing Shift — это «Вторая смена») более романтично и в стиле музыки той эпохи — «Смена партнёров в ритме свинга» или же довольно двусмысленно — «Поменяться партнёрами». Поскольку речь в фильме идёт не только о том, что герои работают на авиационном заводе в ночную смену. В отсутствие своего мужа Джека, воюющего в Европе, молодая женщина Кей Уолш просто не может не влюбиться в привлекательного заводского менеджера Майка по прозвищу Счастливчик. Да и другие её подруги наверняка бы не отказались поменять мужей и завести себе иных возлюбленных, если бы представилась такая возможность.
Любопытно, что исполнительница главной роли, независимая по характеру (кое-кто считает, что просто вздорная) кинозвезда Голди Хон (кстати, она постоянно ссорилась с режиссёром Джонатаном Демми, добившись, в конце концов, его увольнения) нашла именно на съёмках этой картины своего третьего по счёту мужа — актёра Кёрта Рассела. Когда-то, ещё в 1968 году, то есть за 16 лет до «Смены партнёров в ритме свинга», совсем юный Рассел снимался с Хон в одной ленте, но был на пять с лишним лет моложе в то время 22-летней актрисы. Зато ближе к сорока годам она уже обратила своё внимание на 33-летнего партнёра, который тоже стал известным благодаря заглавной роли в «Элвисе» и участию в фантастическом боевике «Побег из Нью-Йорка». И, между прочим, их интимный союз, пусть так и не скреплённый официальными узами брака, оказался на редкость прочным — оба до сих пор вместе.

оценка: 7.0/10

Награды:

Оскар, 1985 год
Номинации (1):
Лучшая женская роль второго плана (Кристин Лати)
Золотой глобус, 1985 год
Номинации (1):
Лучшая женская роль второго плана (Кристин Лати)

MediaInfo:

General
Unique ID : 230244322766557811529236104185842060597 (0xAD37718E12F24E5F96AC6068B69D4D35)
Complete name : H:\\Downloads\\Пересменка.mkv
Format : Matroska
Format version : Version 4 / Version 2
File size : 1.61 GiB
Duration : 1h 40mn
Overall bit rate : 2 293 Kbps
Encoded date : UTC 2013-05-10 13:51:31
Writing application : mkvmerge v6.0.0 (\'Coming Up For Air\') built on Jan 20 2013 09:52:00
Writing library : libebml v1.3.0 + libmatroska v1.4.0
Video
ID : 1
Format : AVC
Format/Info : Advanced Video Codec
Format profile : [url=mailto:[email protected]][email protected][/url]
Format settings, CABAC : Yes
Format settings, ReFrames : 8 frames
Codec ID : V_MPEG4/ISO/AVC
Duration : 1h 40mn
Bit rate : 2 100 Kbps
Width : 720 pixels
Height : 400 pixels
Display aspect ratio : 16:9
Frame rate mode : Constant
Frame rate : 23.976 fps
Color space : YUV
Chroma subsampling : 4:2:0
Bit depth : 8 bits
Scan type : Progressive
Bits/(Pixel*Frame) : 0.304
Stream size : 1.45 GiB (90%)
Title : Swing Shift
Writing library : x264 core 125 r2208 d9d2288
Encoding settings : cabac=1 / ref=8 / deblock=1:-1:-1 / analyse=0x3:0x133 / me=umh / subme=9 / psy=1 / psy_rd=1.00:0.10 / mixed_ref=1 / me_range=32 / chroma_me=1 / trellis=2 / 8x8dct=1 / cqm=0 / deadzone=21,11 / fast_pskip=0 / chroma_qp_offset=-3 / threads=6 / lookahead_threads=1 / sliced_threads=0 / nr=0 / decimate=1 / interlaced=0 / bluray_compat=0 / constrained_intra=0 / bframes=3 / b_pyramid=2 / b_adapt=2 / b_bias=0 / direct=3 / weightb=1 / open_gop=0 / weightp=2 / keyint=250 / keyint_min=25 / scenecut=40 / intra_refresh=0 / rc_lookahead=60 / rc=2pass / mbtree=1 / bitrate=2100 / ratetol=1.0 / qcomp=0.60 / qpmin=10 / qpmax=51 / qpstep=4 / cplxblur=20.0 / qblur=0.5 / ip_ratio=1.40 / aq=1:1.00
Language : English
Default : Yes
Forced : No
Audio
ID : 2
Format : AC-3
Format/Info : Audio Coding 3
Mode extension : CM (complete main)
Format settings, Endianness : Big
Codec ID : A_AC3
Duration : 1h 40mn
Bit rate mode : Constant
Bit rate : 192 Kbps
Channel(s) : 2 channels
Channel positions : Front: L R
Sampling rate : 48.0 KHz
Bit depth : 16 bits
Compression mode : Lossy
Delay relative to video : 12s 0ms
Stream size : 138 MiB (8%)
Title : Многоголосый, закадровый
Language : Russian
Default : Yes
Forced : No
Скриншоты:                    
Вне форума [Профиль] [ЛС]
Похожие темы
Форум Тема Автор Торрент Отв. Посл. сообщение
./templates/default/images/folder_dl.gif T Фильмы 2011-2016 Голодные игры: Сойка-пересмешница. Часть II / The Hunger Games: Mockingjay - Part 2 (Френсис Лоуренс / Francis Lawrence) [2015 г., фантастика, приключения, CAMRip] Dub Clavik
1 | 0

1 | 780

26

2016-01-02 08:06
Dracula Последнее
Показать сообщения:    
Ответить на тему

Текущее время: Сегодня 20:58

Часовой пояс: GMT + 3



Вы не можете начинать темы
Вы не можете отвечать на сообщения
Вы не можете редактировать свои сообщения
Вы не можете удалять свои сообщения
Вы не можете голосовать в опросах
Вы не можете прикреплять файлы к сообщениям
Вы не можете скачивать файлы