Сегодня идет свободное скачивание без начисления Download

Юлий Цезарь / Julius Caesar (1970) [1080p] BDRip

Ответить на тему
 
Автор
Сообщение

UndegraundMen ®

Стаж: 3 года 9 месяцев

Сообщений: 28329

Торрент-статистика

Пост 27-Май-2013 00:01

[Цитировать]

Юлий Цезарь / Julius Caesar (1970) BDRip-«No grander Caesar... No greater cast!»
Русское название: Юлий Цезарь
Оригинальное название: Julius Caesar
Год выпуска: 1970
Жанр: Исторический, биографический
Описание фильма:
Фильм повествует о жизни великого римского императора Юлия Цезаря. Но это не просто эпитафия знаменитому оратору, политику, военачальнику и диктатору Римской мперии. Это трагедия мужчины, пережившего смерть любимой женщины, и трагедия императора, пожертвовавшего любовью египетской царицы Клеопатры ради могущества своей страны.
Режиссер: Стюарт Бёрдж
Актеры: Чарлтон Хестон, Джейсон Робардс, Джон Гилгуд, Ричард Джонсон, Роберт Вон, Ричард Чемберлен, Дайана Ригг, Кристофер Ли, Джилл Беннетт, Дерек Годфри
Продолжительность: 01:56:13
Перевод: Многоголосый закадровый

Дата мировой премьеры: 4 июня 1970
Видеокодек: MPEG-4 AVC/H.264
Битрейт видео: ~9382 Кбит/с
Размер кадра: 1920x818
Качество видео: BDRip
Аудио 1: AC3 Русский 2.0 / 48 kHz / 192 kbps / 16-bit Многоголосый закадровый
Аудио 2: DTS Английский 1.0 / 48 kHz / 768 kbps / 16-bit Оригинал
Сэмпл: Ссылка

MediaInfo

Общее
Уникальный идентификатор : 219795071875568527993193957619820725172 (0xA55AFDB5CE598537AE9442BEFD2903B4)
Полное имя : C:\Xvid4PSP\Julij.Cezar.1970.x264.BDRip.1080p.mkv
Формат : Matroska
Версия формата : Version 4 / Version 2
Размер файла : 8,57 Гбайт
Продолжительность : 1 ч. 56 м.
Общий поток : 10,6 Мбит/сек
Дата кодирования : UTC 2013-05-25 16:37:58
Программа кодирования : mkvmerge v6.2.0 ('Promised Land') built on Apr 28 2013 12:22:01
Библиотека кодирования : libebml v1.3.0 + libmatroska v1.4.0
Видео
Идентификатор : 1
Формат : AVC
Формат/Информация : Advanced Video Codec
Профиль формата : [url=mailto:[email protected]][email protected][/url]
Параметр CABAC формата : Да
Параметр ReFrames формата : 4 кадра
Идентификатор кодека : V_MPEG4/ISO/AVC
Продолжительность : 1 ч. 56 м.
Битрейт : 9382 Кбит/сек
Ширина : 1920 пикселей
Высота : 818 пикселей
Соотношение сторон : 2,35:1
Режим частоты кадров : Постоянный
Частота кадров : 23,976 кадра/сек
Цветовое пространство : YUV
Субдискретизация насыщенности : 4:2:0
Битовая глубина : 8 бит
Тип развёртки : Прогрессивная
Бит/(Пиксели*Кадры) : 0.249
Размер потока : 7,62 Гбайт (89%)
Библиотека кодирования : x264 core 130 r2273 b3065e6
Настройки программы : cabac=1 / ref=4 / deblock=1:-1:-1 / analyse=0x3:0x113 / me=umh / subme=9 / psy=1 / psy_rd=1.00:0.15 / mixed_ref=1 / me_range=24 / chroma_me=1 / trellis=2 / 8x8dct=1 / cqm=0 / deadzone=21,11 / fast_pskip=1 / chroma_qp_offset=-3 / threads=6 / lookahead_threads=1 / sliced_threads=0 / nr=0 / decimate=1 / interlaced=0 / bluray_compat=0 / constrained_intra=0 / bframes=8 / b_pyramid=2 / b_adapt=2 / b_bias=0 / direct=1 / weightb=0 / open_gop=0 / weightp=2 / keyint=230 / keyint_min=23 / scenecut=40 / intra_refresh=0 / rc=crf / mbtree=0 / crf=23.0 / qcomp=0.60 / qpmin=0 / qpmax=69 / qpstep=4 / ip_ratio=1.40 / pb_ratio=1.30 / aq=1:1.00
Язык : English
Default : Да
Forced : Нет
Аудио #1
Идентификатор : 2
Формат : AC-3
Формат/Информация : Audio Coding 3
Профиль формата : Dolby Digital
Расширение режима : CM (complete main)
Параметр Endianness формата : Big
Идентификатор кодека : A_AC3
Продолжительность : 1 ч. 56 м.
Вид битрейта : Постоянный
Битрейт : 192 Кбит/сек
Каналы : 2 канала
Расположение каналов : Front: L R
Частота : 48,0 КГц
Битовая глубина : 16 бит
Метод сжатия : С потерями
Размер потока : 160 Мбайт (2%)
Заголовок : MVO
Язык : Russian
Default : Да
Forced : Нет
Аудио #2
Идентификатор : 3
Формат : DTS
Формат/Информация : Digital Theater Systems
Режим : 16
Параметр Endianness формата : Big
Идентификатор кодека : A_DTS
Продолжительность : 1 ч. 56 м.
Вид битрейта : Постоянный
Битрейт : 768 Кбит/сек
Каналы : 1 канал
Расположение каналов : Front: C
Частота : 48,0 КГц
Битовая глубина : 16 бит
Метод сжатия : С потерями
Размер потока : 638 Мбайт (7%)
Заголовок : Original
Язык : English
Default : Нет
Forced : Нет
Скриншоты:
         
Время раздачи: 24/7
Вне форума [Профиль] [ЛС]
Показать сообщения:    
Ответить на тему

Текущее время: Сегодня 17:35

Часовой пояс: GMT + 3



Вы не можете начинать темы
Вы не можете отвечать на сообщения
Вы не можете редактировать свои сообщения
Вы не можете удалять свои сообщения
Вы не можете голосовать в опросах
Вы не можете прикреплять файлы к сообщениям
Вы не можете скачивать файлы