Сегодня идет свободное скачивание без начисления Download

Славные парни / Goodfellas (Мартин Скорсезе) (Триллер, драма, криминал, биография, 1990) BDRip

Ответить на тему
 
Автор
Сообщение

Omen ®

Стаж: 4 года 1 месяц

Сообщений: 194359

Торрент-статистика

Пост 27-Май-2013 09:52

[Цитировать]

Славные парни / Goodfellas
«Тридцать лет из жизни мафии»
- Русское название: Славные парни
Оригинальное название: Goodfellas
Год выпуска: 1990
Производство: США, Warner Bros. Pictures Co.
Жанр: Триллер, драма, криминал, биография
Перевод: Профессиональный (многоголосый закадровый), профессиональный (двухголосый закадровый)
Субтитры: Отсутствуют
Режиссер: Мартин Скорсезе
Актеры: Роберт Де Ниро, Рэй Лиотта, Джо Пеши, Лоррейн Бракко, Сэмюэл Л. Джексон, Пол Сорвино, Чак Лоу, Фрэнк ДиЛео, Фрэнк Сиверо, Тони Дарроу, Майк Старр, Тобин Белл, Майкл Империоли, Кевин Корригэн, Деби Мейзар, Винсент Галло, Марианн Леоне, Винсент Пасторе, Иллиана Даглас
Описание фильма:
Генри Хилл — начинающий гангстер, занимающийся грабежами вместе с Джими Конвеем и Томми Де Вито, которые с легкостью убивают любого, кто встает у них на пути восхождения к вершинам Мафии. Приходит время когда Генри, сам пострадавший от своих напарников, должен приложить руку к началу конца Джимми и Томми…-
Дата мировой премьеры: 12 сентября 1990
Дата выхода DVD релиза: 3 февраля 2011, «CP-Digital»
Рейтинг MPAA: лицам до 17 лет обязательно присутствие взрослого-Продолжительность: 02:19:29
Качество видео: BDRip
Видеокодек: XviD
Битрейт видео: 1285 Кбит/сек
Размер кадра: 704x400
Аудио 1: Русский, AC3, 2 ch, 192 Кбит/сек [Профессиональный (многоголосый закадровый) ТНТ]
Аудио 2: Русский, MP3, Кбит/сек [Профессиональный (двухголосый закадровый) НТВ]

MediaInfo

Код:
Общее
Полное имя                               : E:\Раздачи\Видео\Славные парни (1990) BDRip.avi
Формат                                   : AVI
Формат/Информация                        : Audio Video Interleave
Размер файла                             : 1,58 Гбайт
Продолжительность                        : 2 ч. 19 м.
Общий поток                              : 1620 Кбит/сек
Программа кодирования                    : VirtualDubModRus 1.5.10.2 (build 2542/release)
Видео
Идентификатор                            : 0
Формат                                   : MPEG-4 Visual
Профиль формата                          : Advanced [email protected]
Параметр BVOP формата                    : 1
Параметр QPel формата                    : Нет
Параметр GMC формата                     : Без точки перехода
Параметр матрицы формата                 : Выборочная
Идентификатор кодека                     : XVID
Идентификатор кодека/Подсказка           : XviD
Продолжительность                        : 2 ч. 19 м.
Битрейт                                  : 1285 Кбит/сек
Ширина                                   : 704 пикселя
Высота                                   : 400 пикселей
Соотношение сторон                       : 16:9
Частота кадров                           : 25,000 кадров/сек
Частота кадров в оригинале               : 23,976 кадра/сек
Цветовое пространство                    : YUV
Субдискретизация насыщенности            : 4:2:0
Битовая глубина                          : 8 бит
Тип развёртки                            : Прогрессивная
Метод сжатия                             : С потерями
Бит/(Пиксели*Кадры)                      : 0.183
Размер потока                            : 1,25 Гбайт (79%)
Библиотека кодирования                   : XviD 1.2.1 (UTC 2008-12-04)
Аудио #1
Идентификатор                            : 1
Формат                                   : AC-3
Формат/Информация                        : Audio Coding 3
Расширение режима                        : CM (complete main)
Параметр Endianness формата              : Big
Идентификатор кодека                     : 2000
Продолжительность                        : 2 ч. 19 м.
Вид битрейта                             : Постоянный
Битрейт                                  : 192 Кбит/сек
Каналы                                   : 2 канала
Расположение каналов                     : Front: L R
Частота                                  : 48,0 КГц
Битовая глубина                          : 16 бит
Метод сжатия                             : С потерями
Размер потока                            : 192 Мбайт (12%)
Выравнивание                             : Соединение по промежуткам
Продолжительность промежутка             : 40  мс. (1,00 видеокадр)
Время предзагрузки промежутка            : 512  мс.
Аудио #2
Идентификатор                            : 2
Формат                                   : MPEG Audio
Версия формата                           : Version 1
Профиль формата                          : Layer 3
Режим                                    : Joint stereo
Расширение режима                        : MS Stereo
Идентификатор кодека                     : 55
Идентификатор кодека/Подсказка           : MP3
Продолжительность                        : 2 ч. 19 м.
Вид битрейта                             : Постоянный
Битрейт                                  : 128 Кбит/сек
Каналы                                   : 2 канала
Частота                                  : 48,0 КГц
Метод сжатия                             : С потерями
Размер потока                            : 128 Мбайт (8%)
Выравнивание                             : Соединение по промежуткам
Продолжительность промежутка             : 40  мс. (1,00 видеокадр)
Время предзагрузки промежутка            : 504  мс.
Библиотека кодирования                   : LAME3.98 (beta)
Скриншоты:
         
         -
Вне форума [Профиль] [ЛС]
Показать сообщения:    
Ответить на тему

Текущее время: Сегодня 01:20

Часовой пояс: GMT + 3



Вы не можете начинать темы
Вы не можете отвечать на сообщения
Вы не можете редактировать свои сообщения
Вы не можете удалять свои сообщения
Вы не можете голосовать в опросах
Вы не можете прикреплять файлы к сообщениям
Вы не можете скачивать файлы