Сегодня идет свободное скачивание без начисления Download

Голубая сталь / Blue Steel (Кэтрин Бигелоу) (Триллер, Драма, Криминал, 1989) HDRip

Ответить на тему
 
Автор
Сообщение

Omen ®

Стаж: 4 года 1 месяц

Сообщений: 194394

Торрент-статистика

Пост 28-Май-2013 14:48

[Цитировать]

Голубая сталь / Blue Steel - Русское название: Голубая сталь
Оригинальное название: Blue Steel
Год выпуска: 1989
Производство: США / Lightning Pictures, Mack-Taylor Productions, Precision Films
Жанр: Триллер, Драма, Криминал-Описание фильма:
Офицер полиции Миган только что закончила специальную полицейскую школу. И в ходе первого же дежурства револьвер грабителя, застреленного ею «по всем правилам», случайно попадает в руки финансового брокера Юджина.
В связи с исчезновением важнейшей улики возбуждается расследование «проступка» Миган, а в городе начинается серия убийств, связанных с ее именем.
Одержимость оружием Юджина, «безупречного» мужчины с Уолл-Стрит, становится смертельной ловушкой для Миган, которая завязывает с ним романтические отношения. Так как именно он и оказывается маньяком-убийцей.-Режиссер: Кэтрин Бигелоу
Продюсер: Майкл Флинн, Лоуренс Касанофф, Эдвард Р. Прессман
Актеры: Джейми Ли Кёртис, Рон Сильвер, Клэнси Браун, Элизабет Пенья, Луиза Флетчер, Филип Боско, Кевин Данн, Ричард Дженкинс, Маркус Флэннаган, Мэри Мара-Продолжительность: 01:41:53
Перевод: Двуголосый закадровый, профессиональный- -Дата мировой премьеры: 16 марта 1990
Дата выхода DVD релиза: 26 ноября 2009, «Вольга»-Видеокодек: Xvid
Битрейт видео: ~883 kb/s
Размер кадра: 688x368
Качество видео: HDRip
Аудиокодек: MP3 (2 ch)
Битрейт аудио: 128 kb/s

Рецензия

MediaInfo

Общее
Полное имя : D:\Торрент раздача\Голубая сталь_1989_HDRip.avi
Формат : AVI
Формат/Информация : Audio Video Interleave
Размер файла : 744 Мбайт
Продолжительность : 1 ч. 41 м.
Общий поток : 1021 Кбит/сек
Программа кодирования : VirtualDubMod 1.5.10.2 (build 2540/release)
Библиотека кодирования : VirtualDubMod build 2540/release
Видео
Идентификатор : 0
Формат : MPEG-4 Visual
Профиль формата : Advanced [email protected]
Параметр BVOP формата : 1
Параметр QPel формата : Нет
Параметр GMC формата : Без точки перехода
Параметр матрицы формата : Default (MPEG)
Идентификатор кодека : XVID
Идентификатор кодека/Подсказка : XviD
Продолжительность : 1 ч. 41 м.
Битрейт : 884 Кбит/сек
Ширина : 688 пикселей
Высота : 368 пикселей
Соотношение сторон : 1,85:1
Частота кадров : 23,976 кадра/сек
Цветовое пространство : YUV
Субдискретизация насыщенности : 4:2:0
Битовая глубина : 8 бит
Тип развёртки : Прогрессивная
Метод сжатия : С потерями
Бит/(Пиксели*Кадры) : 0.146
Размер потока : 644 Мбайт (87%)
Библиотека кодирования : XviD 1.2.1 (UTC 2008-12-04)
Аудио
Идентификатор : 1
Формат : MPEG Audio
Версия формата : Version 1
Профиль формата : Layer 3
Идентификатор кодека : 55
Идентификатор кодека/Подсказка : MP3
Продолжительность : 1 ч. 41 м.
Вид битрейта : Постоянный
Битрейт : 128 Кбит/сек
Каналы : 2 канала
Частота : 48,0 КГц
Метод сжатия : С потерями
Размер потока : 93,3 Мбайт (13%)
Выравнивание : Соединение по промежуткам
Продолжительность промежутка : 42 мс. (1,00 видеокадр)
Время предзагрузки промежутка : 504 мс.
Библиотека кодирования : LAME3.98r
Настройки программы : -m s -V 4 -q 2 -lowpass 17 -b 128
Скриншоты:
         
         
Вне форума [Профиль] [ЛС]
Показать сообщения:    
Ответить на тему

Текущее время: Сегодня 02:54

Часовой пояс: GMT + 3



Вы не можете начинать темы
Вы не можете отвечать на сообщения
Вы не можете редактировать свои сообщения
Вы не можете удалять свои сообщения
Вы не можете голосовать в опросах
Вы не можете прикреплять файлы к сообщениям
Вы не можете скачивать файлы