Today is a free download without charge Download

Звуки Му - 21 альбом, 1 бутлег (1987 - 2005) Дискография [FLAC|Lossless]

Reply to topic
 
Author
Message

UndegraundMen ®

Longevity: 7 years 9 months

Posts: 25145

Торрент-статистика

Post 29-May-2013 00:01

[Quote]

Звуки Му - Дискография (21 альбом, 1 бутлег) (1987 - 2005)- Год: 1987 - 2005
Жанр: Experemental Rock, Art Rock, Post Punk, Punk Rock Meditation
Продолжительность: 20:18:57
Кодек: FLAC, (tracks, image+ .cue)
Битрейт: Lossless
«Зву́ки Му» — московская рок-группа, созданная в начале 1980-х годов Петром Мамоновым . В песнях коллектива доминирует бытовая тематика, тогда как звучание постоянно менялось, в разные периоды затрагивая такие направления как экспериментальный рок (1983—1987), психоделический рок (1988—1991), постпанк (1993—1997) и lo-fi (1998—2005).
Трек лист:

1987 - Владивосток (Bootleg) 2CD

Продолжительность: 02:13:48

CD 1

Продолжительность: 01:09:12
01. Серый голубь
02. Шуба-дуба блюз
03. Много у нас нежных песен...
04. 0-1
05. Хорошая песня
06. Зима
07. 52-й понедельник
08. Цветочки-лютики
09. Песня профессора Долватовского
10. Инструментал
11. Люляки баб
12. Крым
13. Цветы на огороде
14. Источник заразы
15. Бойлер
16. Союзпечать
17. Постовой
18. Парашютист

AccuRip Check:

Код:
[CUETools log; Date: 27.07.2011 14:28:21; Version: 2.1.2a]
[CTDB TOCID: UpgfkaTBiXzvWa5FCIfEPSU8IdE-] disk not present in database.
[AccurateRip ID: 00298dcb-02313b89-ed103812] disk not present in database.
Track Peak [ CRC32 ] [W/O NULL]
-- 88,3 [32F80C18] [6530CD93]
01 75,8 [89E8CBF3] [D090F2F2]
02 78,8 [A73C6D88] [D410B338]
03 14,4 [EFBEEA25] [00D99EFE]
04 74,3 [1B52DD2E] [5127588D]
05 66,0 [62B2AF16] [68643595]
06 59,6 [BB2BD742] [3CC5C7D5]
07 71,5 [825549E7] [26F19261]
08 88,3 [90347DD8] [EB025694]
09 73,1 [E5A9A91C] [F06CA5D1]
10 58,2 [04B2DA1A] [4CFC8226]
11 75,8 [A40E591E] [F10B1B14]
12 60,5 [A478C587] [9172A636]
13 48,0 [ACE360EE] [9AB54B56]
14 74,4 [749A1698] [BAE7978F]
15 66,8 [E7BB6EEE] [F36E74CD]
16 77,9 [22371C37] [7AC912CE]
17 73,0 [29F63CC3] [392C426A]
18 65,3 [34BDBDEC] [C37E30E5]

CD 2

Продолжительность: 01:04:35
01. Гадопятикна
02. Сумасшедшая королева
03. Суперсизый кинг
04. Композиция такая...
05. Встань пораньше
06. Бутылка водки
07. Бумажные цветы
08. Курочка ряба
09. Серый голубь
10. Союзпечать
11. Зима
12. Парашютист
13. Постовой
14. Забытый секс
15. Пробковый пояс

AccuRip Check:

Код:
[CUETools log; Date: 27.07.2011 14:29:05; Version: 2.1.2a]
[CTDB TOCID: qkyNyHRlLpdi1svcQ3XQM6Le1JY-] disk not present in database.
[AccurateRip ID: 0023951e-018b3854-e00f230f] disk not present in database.
Track Peak [ CRC32 ] [W/O NULL]
-- 100,0 [C74E848C] [EB3EB339]
01 76,7 [F08BBAD3] [DA596EA2]
02 57,0 [15BD5840] [D860D001]
03 61,7 [A8E08A66] [6F846FA3]
04 21,2 [0857C5BB] [CB2F217E]
05 83,0 [422A3ADC] [50BF807A]
06 71,4 [90D927E6] [AFF57796]
07 82,3 [4E0F7E24] [DEAACA06]
08 63,6 [149546E3] [1B758032]
09 81,6 [E962B69F] [0A564313]
10 87,8 [C36022A1] [F7FDCE63]
11 88,5 [66577683] [047F1076]
12 62,8 [9E17C85E] [92F31399]
13 99,6 [A4918BA3] [4270DC75]
14 100,0 [B43763BC] [95E9020A]
15 94,7 [19BD6080] [D64270ED]

Отчёт auCDtect Task manager:

Код:
DON'T MODIFY THIS FILE
-----------------------
PERFORMER: auCDtect Task Manager, ver. 1.6.0 RC1 build 1.6.0.1
Copyright (c) 2008-2010 y-soft. All rights reserved
http://y-soft.org
ANALYZER: auCDtect: CD records authenticity detector, version 0.8.2
Copyright (c) 2004 Oleg Berngardt. All rights reserved.
Copyright (c) 2004 Alexander Djourik. All rights reserved.
FILE: Звуки Му - Владивосток (CD2).flac
  Size: 382422104 Hash: 65A633E07E743A97FAA69FA35A26E0A5 Accuracy: -m0
  Conclusion: CDDA 100%
  Signature: 403A4F7771BCBD947DDA4D64C09CB4FFD5024C92
FILE: Звуки Му - Владивосток (CD1).flac
  Size: 353746416 Hash: 046B346ECF144F7C6D2DC482D639DF07 Accuracy: -m0
  Conclusion: CDDA 99%
  Signature: E41CE8222C9C820217DD64129619031B404C6050

1988 - Крым

Продолжительность: 00:42:13
01. Оконное стекло
02. Отвяжись
03. Ремонт
04. Крым
05. Сумасшедшая королева
06. Суперсизый кинг
07. Гадопятикна
08. Парашютист
09. Постовой
10. Песня профессора Давыдовского

Отчёт ЕАС:

Код:
Exact Audio Copy V0.99 prebeta 5 from 4. May 2009
EAC extraction logfile from 26. July 2011, 10:55
Звуки Му / Крым
Used drive : TSSTcorpCDDVDW SH-S203B Adapter: 2 ID: 0
Read mode : Secure
Utilize accurate stream : Yes
Defeat audio cache : Yes
Make use of C2 pointers : No
Read offset correction : 6
Overread into Lead-In and Lead-Out : No
Fill up missing offset samples with silence : Yes
Delete leading and trailing silent blocks : No
Null samples used in CRC calculations : Yes
Used interface : Native Win32 interface for Win NT & 2000
Used output format : Internal WAV Routines
Sample format : 44.100 Hz; 16 Bit; Stereo
TOC of the extracted CD
Track | Start | Length | Start sector | End sector
---------------------------------------------------------
1 | 0:00.00 | 3:10.12 | 0 | 14261
2 | 3:10.12 | 4:27.30 | 14262 | 34316
3 | 7:37.42 | 3:48.05 | 34317 | 51421
4 | 11:25.47 | 2:20.15 | 51422 | 61936
5 | 13:45.62 | 3:59.53 | 61937 | 79914
6 | 17:45.40 | 4:47.32 | 79915 | 101471
7 | 22:32.72 | 5:24.33 | 101472 | 125804
8 | 27:57.30 | 6:35.62 | 125805 | 155491
9 | 34:33.17 | 3:57.50 | 155492 | 173316
10 | 38:30.67 | 3:42.20 | 173317 | 189986
Range status and errors
Selected range
Filename C:\Incoming\Звуки Му\Звуки Му 1988-Крым [1994, MR 94039]\Звуки Му - Крым.wav
Peak level 89.1 %
Range quality 100.0 %
Test CRC DF478FAA
Copy CRC DF478FAA
Copy OK
No errors occurred
AccurateRip summary
Track 1 accurately ripped (confidence 2) [D109BCDD]
Track 2 accurately ripped (confidence 2) [9FCD4E04]
Track 3 accurately ripped (confidence 2) [904F6405]
Track 4 accurately ripped (confidence 2) [F13A0285]
Track 5 accurately ripped (confidence 2) [3FC09631]
Track 6 accurately ripped (confidence 2) [F834B722]
Track 7 accurately ripped (confidence 2) [173ED88A]
Track 8 accurately ripped (confidence 2) [F7C92DDD]
Track 9 accurately ripped (confidence 2) [67F52C34]
Track 10 accurately ripped (confidence 2) [3735B4C3]
All tracks accurately ripped
End of status report

Отчёт auCDtect Task manager:

Код:
DON'T MODIFY THIS FILE
-----------------------
PERFORMER: auCDtect Task Manager, ver. 1.6.0 RC1 build 1.6.0.1
Copyright (c) 2008-2010 y-soft. All rights reserved
http://y-soft.org
ANALYZER: auCDtect: CD records authenticity detector, version 0.8.2
Copyright (c) 2004 Oleg Berngardt. All rights reserved.
Copyright (c) 2004 Alexander Djourik. All rights reserved.
FILE: Звуки Му - Крым.flac
  Size: 238005388 Hash: 4978BDE78672F191B8C23B049466889B Accuracy: -m0
  Conclusion: CDDA 100%
  Signature: B41332F1294100D72E1A9CA53C685FF974C4068F

1988 - Простые вещи 2CD

Продолжительность: 01:19:57

CD 1

Продолжительность: 00:41:01
01. Серый голубь
02. Шуба-дуба блюз
03. Зима
04. Цветочки-лютики
05. Люляки баб
06. Мумия
07. Источник заразы
08. Хорошая песня
09. Бумажные цветы
10. 0-1
11. Союзпечать

Отчёт ЕАС:

Код:
Exact Audio Copy V0.99 prebeta 5 from 4. May 2009
EAC extraction logfile from 26. July 2011, 16:11
Звуки Му / Простые вещи (CD1)
Used drive : TSSTcorpCDDVDW SH-S203B Adapter: 2 ID: 0
Read mode : Secure
Utilize accurate stream : Yes
Defeat audio cache : Yes
Make use of C2 pointers : No
Read offset correction : 6
Overread into Lead-In and Lead-Out : No
Fill up missing offset samples with silence : Yes
Delete leading and trailing silent blocks : No
Null samples used in CRC calculations : Yes
Used interface : Native Win32 interface for Win NT & 2000
Used output format : Internal WAV Routines
Sample format : 44.100 Hz; 16 Bit; Stereo
TOC of the extracted CD
Track | Start | Length | Start sector | End sector
---------------------------------------------------------
1 | 0:00.00 | 3:46.34 | 0 | 16983
2 | 3:46.34 | 3:50.70 | 16984 | 34303
3 | 7:37.29 | 2:50.31 | 34304 | 47084
4 | 10:27.60 | 4:04.39 | 47085 | 65423
5 | 14:32.24 | 2:50.62 | 65424 | 78235
6 | 17:23.11 | 3:14.65 | 78236 | 92850
7 | 20:38.01 | 2:48.34 | 92851 | 105484
8 | 23:26.35 | 7:20.20 | 105485 | 138504
9 | 30:46.55 | 3:02.67 | 138505 | 152221
10 | 33:49.47 | 3:21.04 | 152222 | 167300
11 | 37:10.51 | 3:51.07 | 167301 | 184632
Range status and errors
Selected range
Filename C:\Incoming\Звуки Му\Звуки Му 1988-Простые вещи [1996, MR 96096 2CD]\Звуки Му - Простые вещи (CD1).wav
Peak level 78.6 %
Range quality 100.0 %
Test CRC 2A8A5999
Copy CRC 2A8A5999
Copy OK
No errors occurred
AccurateRip summary
Track 1 cannot be verified as accurate (confidence 2) [3F072EE8], AccurateRip returned [5B7E1CDE]
Track 2 cannot be verified as accurate (confidence 2) [5E480487], AccurateRip returned [C97FEE6F]
Track 3 cannot be verified as accurate (confidence 2) [F8CD46C0], AccurateRip returned [CA6BC79C]
Track 4 cannot be verified as accurate (confidence 2) [C5796F73], AccurateRip returned [A38AB6F5]
Track 5 cannot be verified as accurate (confidence 2) [14191B3E], AccurateRip returned [534D9825]
Track 6 cannot be verified as accurate (confidence 2) [6A410FFB], AccurateRip returned [D58199B4]
Track 7 cannot be verified as accurate (confidence 2) [F855D9BA], AccurateRip returned [B3D3CBEB]
Track 8 cannot be verified as accurate (confidence 2) [E811D20D], AccurateRip returned [83957E1F]
Track 9 cannot be verified as accurate (confidence 2) [7D470E55], AccurateRip returned [9AB52CBF]
Track 10 cannot be verified as accurate (confidence 2) [84C60A66], AccurateRip returned [772335FD]
Track 11 cannot be verified as accurate (confidence 2) [874C964D], AccurateRip returned [AF4255B2]
No tracks could be verified as accurate
You may have a different pressing from the one(s) in the database
End of status report

CD 2

Продолжительность: 00:38:55
01. Бойлер
02. 52-ой понедельник
03. Лифт на небо
04. Курочка Ряба
05. Красный черт
06. Бутылка водки
07. Досуги-буги
08. Встань пораньше
09. Диатез

Отчёт ЕАС:

Код:
Exact Audio Copy V0.99 prebeta 5 from 4. May 2009
EAC extraction logfile from 26. July 2011, 16:31
Звуки Му / Простые вещи (CD2)
Used drive : TSSTcorpCDDVDW SH-S203B Adapter: 2 ID: 0
Read mode : Secure
Utilize accurate stream : Yes
Defeat audio cache : Yes
Make use of C2 pointers : No
Read offset correction : 6
Overread into Lead-In and Lead-Out : No
Fill up missing offset samples with silence : Yes
Delete leading and trailing silent blocks : No
Null samples used in CRC calculations : Yes
Used interface : Native Win32 interface for Win NT & 2000
Used output format : Internal WAV Routines
Sample format : 44.100 Hz; 16 Bit; Stereo
TOC of the extracted CD
Track | Start | Length | Start sector | End sector
---------------------------------------------------------
1 | 0:00.00 | 6:16.26 | 0 | 28225
2 | 6:16.26 | 5:36.61 | 28226 | 53486
3 | 11:53.12 | 5:01.72 | 53487 | 76133
4 | 16:55.09 | 4:16.33 | 76134 | 95366
5 | 21:11.42 | 4:57.53 | 95367 | 117694
6 | 26:09.20 | 4:19.67 | 117695 | 137186
7 | 30:29.12 | 3:27.52 | 137187 | 152763
8 | 33:56.64 | 2:34.05 | 152764 | 164318
9 | 36:30.69 | 2:24.43 | 164319 | 175161
Range status and errors
Selected range
Filename C:\Incoming\Звуки Му\Звуки Му 1988-Простые вещи [1996, MR 96096 2CD]\Звуки Му - Простые вещи (CD2).wav
Peak level 79.6 %
Range quality 100.0 %
Test CRC 8CD2666F
Copy CRC 8CD2666F
Copy OK
No errors occurred
AccurateRip summary
Track 1 cannot be verified as accurate (confidence 2) [1F0ED219], AccurateRip returned [9CE40ACD]
Track 2 cannot be verified as accurate (confidence 2) [22033772], AccurateRip returned [805B93FB]
Track 3 cannot be verified as accurate (confidence 2) [8B59F0B4], AccurateRip returned [11E19A13]
Track 4 cannot be verified as accurate (confidence 2) [F57C370D], AccurateRip returned [FD103AA1]
Track 5 cannot be verified as accurate (confidence 2) [EE9F7703], AccurateRip returned [5F64D104]
Track 6 cannot be verified as accurate (confidence 2) [70ADF78F], AccurateRip returned [EBFCEBBA]
Track 7 cannot be verified as accurate (confidence 2) [15F452D7], AccurateRip returned [A7722C87]
Track 8 cannot be verified as accurate (confidence 2) [44CC1756], AccurateRip returned [0C1D9CC3]
Track 9 cannot be verified as accurate (confidence 2) [8C1B8E9B], AccurateRip returned [D6DB3AF7]
No tracks could be verified as accurate
You may have a different pressing from the one(s) in the database
End of status report

Отчёт auCDtect Task manager:

Код:
DON'T MODIFY THIS FILE
-----------------------
PERFORMER: auCDtect Task Manager, ver. 1.6.0 RC1 build 1.6.0.1
Copyright (c) 2008-2010 y-soft. All rights reserved
http://y-soft.org
ANALYZER: auCDtect: CD records authenticity detector, version 0.8.2
Copyright (c) 2004 Oleg Berngardt. All rights reserved.
Copyright (c) 2004 Alexander Djourik. All rights reserved.
FILE: Звуки Му - Простые вещи (CD2).flac
  Size: 212630958 Hash: 57E82C912E446DAB85A7E1CC0CE5623F Accuracy: -m0
  Conclusion: CDDA 100%
  Signature: ACA36A03CA7FF010B5B89EB2549F7A23E505F5C3
FILE: Звуки Му - Простые вещи (CD1).flac
  Size: 230100470 Hash: A2D402A41C598C29E90C8B0753A71C94 Accuracy: -m0
  Conclusion: CDDA 100%
  Signature: F39C8640EA369503D57CA2E1D2E07DF16DCCD2F4

1989 - Звуки Му

Продолжительность: 00:44:14
01. Источник Заразы
02. Сумасшедшая Королева
03. Забытый Секс
04. Ноль Минус Один
05. Отвяжись
06. Крым
07. Гадопятикна
08. Бумажные Цветы
09. Ежедневный Герой
10. Зима
11. Зима (Dance Remix)

Отчёт ЕАС:

Код:
Exact Audio Copy V0.99 prebeta 4 from 23. January 2008
EAC extraction logfile from 12. December 2009, 17:15
Звуки Му / Звуки Му
Used drive : _NEC DVD_RW ND-3520AW Adapter: 0 ID: 0
Read mode : Secure
Utilize accurate stream : Yes
Defeat audio cache : Yes
Make use of C2 pointers : No
Read offset correction : 48
Overread into Lead-In and Lead-Out : No
Fill up missing offset samples with silence : Yes
Delete leading and trailing silent blocks : No
Null samples used in CRC calculations : Yes
Used interface : Native Win32 interface for Win NT & 2000
Used output format : Internal WAV Routines
Sample format : 44.100 Hz; 16 Bit; Stereo
TOC of the extracted CD
Track | Start | Length | Start sector | End sector
---------------------------------------------------------
1 | 0:00.00 | 2:53.06 | 0 | 12980
2 | 2:53.06 | 3:50.26 | 12981 | 30256
3 | 6:43.32 | 5:44.32 | 30257 | 56088
4 | 12:27.64 | 3:15.64 | 56089 | 70777
5 | 15:43.53 | 4:22.30 | 70778 | 90457
6 | 20:06.08 | 2:10.03 | 90458 | 100210
7 | 22:16.11 | 6:31.72 | 100211 | 129607
8 | 28:48.08 | 3:04.68 | 129608 | 143475
9 | 31:53.01 | 3:48.08 | 143476 | 160583
10 | 35:41.09 | 3:19.53 | 160584 | 175561
11 | 39:00.62 | 5:13.43 | 175562 | 199079
Range status and errors
Selected range
Filename F:\Music Lossless\Zvuki Mu - Zvuki Mu (1989) (1998 Otdelenie Vyhod B070)\Zvuki Mu - Zvuki Mu.wav
Peak level 89.1 %
Range quality 100.0 %
Test CRC D8A2B070
Copy CRC D8A2B070
Copy OK
No errors occurred
AccurateRip summary
Track 1 accurately ripped (confidence 2) [200117FE]
Track 2 accurately ripped (confidence 2) [6A44C411]
Track 3 accurately ripped (confidence 2) [A4113BFE]
Track 4 accurately ripped (confidence 2) [911D069F]
Track 5 accurately ripped (confidence 2) [183D16EC]
Track 6 accurately ripped (confidence 2) [6781AA0B]
Track 7 accurately ripped (confidence 2) [9CDF5656]
Track 8 accurately ripped (confidence 2) [8E52E576]
Track 9 accurately ripped (confidence 2) [1184F1B5]
Track 10 accurately ripped (confidence 2) [984AB4D7]
Track 11 accurately ripped (confidence 2) [45B751C0]
All tracks accurately ripped
End of status report

Отчёт auCDtect Task manager:

Код:
DON'T MODIFY THIS FILE
-----------------------
PERFORMER: auCDtect Task Manager, ver. 1.6.0 RC1 build 1.6.0.1
Copyright (c) 2008-2010 y-soft. All rights reserved
http://y-soft.org
ANALYZER: auCDtect: CD records authenticity detector, version 0.8.2
Copyright (c) 2004 Oleg Berngardt. All rights reserved.
Copyright (c) 2004 Alexander Djourik. All rights reserved.
FILE: Звуки Му - Звуки Му.flac
  Size: 276296287 Hash: D7C628B5281C3248669B81986F5C03BC Accuracy: -m0
  Conclusion: CDDA 100%
  Signature: 88C5F8C615B96FA87357BCBA00BD6B9775606362

1990 - Транснадежность

Продолжительность: 00:46:09
01. Транснадежность
02. Турист
03. Забытый секс
04. Инструментал
05. Пробковый пояс
06. Нестрашный Му
07. Спиритизм
08. Пес
09. Люся
10. Цветы на огороде
11. Тишина

Отчёт ЕАС:

Код:
Exact Audio Copy V0.99 prebeta 5 from 4. May 2009
EAC extraction logfile from 26. July 2011, 15:26
Звуки Му / Транснадежность
Used drive : TSSTcorpCDDVDW SH-S203B Adapter: 2 ID: 0
Read mode : Secure
Utilize accurate stream : Yes
Defeat audio cache : Yes
Make use of C2 pointers : No
Read offset correction : 6
Overread into Lead-In and Lead-Out : No
Fill up missing offset samples with silence : Yes
Delete leading and trailing silent blocks : No
Null samples used in CRC calculations : Yes
Used interface : Native Win32 interface for Win NT & 2000
Used output format : Internal WAV Routines
Sample format : 44.100 Hz; 16 Bit; Stereo
TOC of the extracted CD
Track | Start | Length | Start sector | End sector
---------------------------------------------------------
1 | 0:00.00 | 3:17.42 | 0 | 14816
2 | 3:17.42 | 2:21.48 | 14817 | 25439
3 | 5:39.15 | 6:17.52 | 25440 | 53766
4 | 11:56.67 | 3:39.13 | 53767 | 70204
5 | 15:36.05 | 1:34.40 | 70205 | 77294
6 | 17:10.45 | 5:40.30 | 77295 | 102824
7 | 22:51.00 | 4:58.55 | 102825 | 125229
8 | 27:49.55 | 1:57.57 | 125230 | 134061
9 | 29:47.37 | 10:11.68 | 134062 | 179954
10 | 39:59.30 | 5:02.42 | 179955 | 202646
11 | 45:01.72 | 1:07.03 | 202647 | 207674
Range status and errors
Selected range
Filename C:\Incoming\Звуки Му\Звуки Му 1990-Транснадежность [1994, MR 94027]\Звуки Му - Транснадежность.wav
Peak level 89.0 %
Range quality 100.0 %
Test CRC 72D97B38
Copy CRC 72D97B38
Copy OK
No errors occurred
AccurateRip summary
Track 1 cannot be verified as accurate (confidence 3) [8B5885FF], AccurateRip returned [F608845C]
Track 2 cannot be verified as accurate (confidence 3) [13C4F79A], AccurateRip returned [D8F61065]
Track 3 cannot be verified as accurate (confidence 3) [3266AD95], AccurateRip returned [FC03DA91]
Track 4 cannot be verified as accurate (confidence 3) [A66D1C78], AccurateRip returned [4CB8C172]
Track 5 cannot be verified as accurate (confidence 3) [F1699507], AccurateRip returned [E04465DC]
Track 6 cannot be verified as accurate (confidence 2) [5AE19F42], AccurateRip returned [446E3A5A]
Track 7 cannot be verified as accurate (confidence 3) [6C9BFA20], AccurateRip returned [1B4FF5DB]
Track 8 cannot be verified as accurate (confidence 3) [CCB75E71], AccurateRip returned [FD397C23]
Track 9 cannot be verified as accurate (confidence 3) [B4072E86], AccurateRip returned [9B81D3D9]
Track 10 cannot be verified as accurate (confidence 3) [F19C423B], AccurateRip returned [BC975DD0]
Track 11 cannot be verified as accurate (confidence 2) [3AA4F4B9], AccurateRip returned [CC701A66]
No tracks could be verified as accurate
You may have a different pressing from the one(s) in the database
End of status report

Отчёт auCDtect Task manager:

Код:
DON'T MODIFY THIS FILE
-----------------------
PERFORMER: auCDtect Task Manager, ver. 1.6.0 RC1 build 1.6.0.1
Copyright (c) 2008-2010 y-soft. All rights reserved
http://y-soft.org
ANALYZER: auCDtect: CD records authenticity detector, version 0.8.2
Copyright (c) 2004 Oleg Berngardt. All rights reserved.
Copyright (c) 2004 Alexander Djourik. All rights reserved.
FILE: Звуки Му - Транснадежность.flac
  Size: 277620256 Hash: 6345340378D39FD1E689A60994644A1D Accuracy: -m0
  Conclusion: CDDA 100%
  Signature: B3202421A2CFFA3A53F09A610F2E4B358AD17170

1992 - Мамонов и Алексей

Продолжительность: 00:39:20
01. Спиритиз
02. Автобус МОА
03. Восторг
04. Б.Б.Б.
05. Кактус
06. Лень
07. Лето
08. Наташа
09. Начитался книг (Часть 1)
10. Начитался книг (Часть 2)
11. Начитался книг (Часть 3)

Отчёт ЕАС:

Код:
Exact Audio Copy V0.99 prebeta 5 from 4. May 2009
EAC extraction logfile from 26. July 2011, 15:47
Звуки Му / Мамонов и Алексей
Used drive : TSSTcorpCDDVDW SH-S203B Adapter: 2 ID: 0
Read mode : Secure
Utilize accurate stream : Yes
Defeat audio cache : Yes
Make use of C2 pointers : No
Read offset correction : 6
Overread into Lead-In and Lead-Out : No
Fill up missing offset samples with silence : Yes
Delete leading and trailing silent blocks : No
Null samples used in CRC calculations : Yes
Used interface : Native Win32 interface for Win NT & 2000
Used output format : Internal WAV Routines
Sample format : 44.100 Hz; 16 Bit; Stereo
TOC of the extracted CD
Track | Start | Length | Start sector | End sector
---------------------------------------------------------
1 | 0:00.00 | 5:16.60 | 0 | 23759
2 | 5:16.60 | 2:44.42 | 23760 | 36101
3 | 8:01.27 | 3:11.48 | 36102 | 50474
4 | 11:13.00 | 4:58.05 | 50475 | 72829
5 | 16:11.05 | 2:59.30 | 72830 | 86284
6 | 19:10.35 | 4:55.65 | 86285 | 108474
7 | 24:06.25 | 2:48.15 | 108475 | 121089
8 | 26:54.40 | 4:00.40 | 121090 | 139129
9 | 30:55.05 | 2:28.70 | 139130 | 150299
10 | 33:24.00 | 1:30.15 | 150300 | 157064
11 | 34:54.15 | 4:25.60 | 157065 | 176999
Range status and errors
Selected range
Filename C:\Incoming\Звуки Му\Звуки Му 1992-Мамонов и Алексей [1994, MR 94028]\Звуки Му - Мамонов и Алексей.wav
Peak level 89.0 %
Range quality 99.9 %
Test CRC 3F889EF0
Copy CRC 3F889EF0
Copy OK
No errors occurred
AccurateRip summary
Track 1 cannot be verified as accurate (confidence 2) [5A18A03C], AccurateRip returned [E1B87E4B]
Track 2 cannot be verified as accurate (confidence 2) [B83EE6AD], AccurateRip returned [0D8367AC]
Track 3 cannot be verified as accurate (confidence 2) [1D051B48], AccurateRip returned [7C2F6DF1]
Track 4 cannot be verified as accurate (confidence 2) [831BD61A], AccurateRip returned [BB13F1A7]
Track 5 cannot be verified as accurate (confidence 2) [DAA38F06], AccurateRip returned [67A99055]
Track 6 cannot be verified as accurate (confidence 2) [C929134E], AccurateRip returned [37538919]
Track 7 cannot be verified as accurate (confidence 2) [2AC93AC3], AccurateRip returned [14DBE365]
Track 8 cannot be verified as accurate (confidence 2) [6F5B2C25], AccurateRip returned [2EFA3300]
Track 9 cannot be verified as accurate (confidence 2) [6113918A], AccurateRip returned [9B69A325]
Track 10 cannot be verified as accurate (confidence 2) [E4EA4719], AccurateRip returned [2A84B6E4]
Track 11 cannot be verified as accurate (confidence 2) [47FE931D], AccurateRip returned [A9A86613]
No tracks could be verified as accurate
You may have a different pressing from the one(s) in the database
End of status report

Отчёт auCDtect Task manager:

Код:
DON'T MODIFY THIS FILE
-----------------------
PERFORMER: auCDtect Task Manager, ver. 1.6.0 RC1 build 1.6.0.1
Copyright (c) 2008-2010 y-soft. All rights reserved
http://y-soft.org
ANALYZER: auCDtect: CD records authenticity detector, version 0.8.2
Copyright (c) 2004 Oleg Berngardt. All rights reserved.
Copyright (c) 2004 Alexander Djourik. All rights reserved.
FILE: Звуки Му - Мамонов и Алексей.flac
  Size: 205916843 Hash: 3CD8968040CBE574A574A57B3A166E26 Accuracy: -m0
  Conclusion: CDDA 100%
  Signature: 4C03DE9121E82476A1514B43D17DBBC265B6DBA0

1994 - Русские поют (Мамонов и Шумов)

Продолжительность: 00:42:05
01. Welcome To The Machine (R. Waters)
02. My Love (P. McCartney)
03. In My Life (J. Lennon - P. McCartney)
04. Bennie And The Jets (E. John - B. Taupin)
05. I'm Losing You (J. Lennon)
06. Maggie May (Stewart - Quittenon)
07. Don't Wait (J. J. Cale)
08. Mother (J. Lennon)
09. Fly Like An Eagle (S. Miller)
10. Sharp Dressed Man (Gibbons - Hill - Beard)

Отчёт ЕАС:

Код:
Exact Audio Copy V1.0 beta 2 from 29. April 2011
EAC extraction logfile from 19. September 2011, 0:38
Мамонов и Шумов / Русские поют
Used drive : ASUS DRW-2014L1T Adapter: 0 ID: 2
Read mode : Secure
Utilize accurate stream : Yes
Defeat audio cache : Yes
Make use of C2 pointers : No
Read offset correction : 6
Overread into Lead-In and Lead-Out : No
Fill up missing offset samples with silence : Yes
Delete leading and trailing silent blocks : No
Null samples used in CRC calculations : Yes
Used interface : Native Win32 interface for Win NT & 2000
Used output format : User Defined Encoder
Selected bitrate : 896 kBit/s
Quality : High
Add ID3 tag : No
Command line compressor : C:\Program Files (x86)\wavpack\wavpack.exe
Additional command line options : -hm -w "Year=%year%" -w "Genre=%genre%" %source% %dest%
TOC of the extracted CD
Track | Start | Length | Start sector | End sector
---------------------------------------------------------
1 | 0:00.00 | 3:48.07 | 0 | 17106
2 | 3:48.07 | 4:30.48 | 17107 | 37404
3 | 8:18.55 | 3:16.45 | 37405 | 52149
4 | 11:35.25 | 4:52.55 | 52150 | 74104
5 | 16:28.05 | 4:16.45 | 74105 | 93349
6 | 20:44.50 | 4:50.07 | 93350 | 115106
7 | 25:34.57 | 4:26.05 | 115107 | 135061
8 | 30:00.62 | 4:12.18 | 135062 | 153979
9 | 34:13.05 | 4:13.45 | 153980 | 172999
10 | 38:26.50 | 3:38.25 | 173000 | 189374
Range status and errors
Selected range
Filename H:\Мамонов и Шумов Русские Поют\Мамонов и Шумов - Русские поют.wav
Peak level 94.3 %
Extraction speed 8.0 X
Range quality 100.0 %
Test CRC A6694939
Copy CRC A6694939
Copy OK
No errors occurred
AccurateRip summary
Track 1 not present in database
Track 2 not present in database
Track 3 not present in database
Track 4 not present in database
Track 5 not present in database
Track 6 not present in database
Track 7 not present in database
Track 8 not present in database
Track 9 not present in database
Track 10 not present in database
None of the tracks are present in the AccurateRip database
End of status report

Отчёт auCDtect Task manager:

Код:
DON'T MODIFY THIS FILE
-----------------------
PERFORMER: auCDtect Task Manager, ver. 1.6.0 RC1 build 1.6.0.1
Copyright (c) 2008-2010 y-soft. All rights reserved
http://y-soft.org
ANALYZER: auCDtect: CD records authenticity detector, version 0.8.2
Copyright (c) 2004 Oleg Berngardt. All rights reserved.
Copyright (c) 2004 Alexander Djourik. All rights reserved.
FILE: Мамонов и Шумов - Русские поют.flac
  Size: 275271270 Hash: E7F46F92CFB8CDCC7BBA168DBDFC04D9 Accuracy: -m0
  Conclusion: CDDA 100%
  Signature: 742C47D4D602CF8AA73A4F539C43F8E911529040

1995 - Грубый закат

Продолжительность: 00:39:31
01. Сигаретер
02. Бронепоезд
03. Грубый закат
04. Консервный нож
05. Канава
06. Новоселы
07. Брат
08. Больничный лист

Отчёт ЕАС:

Код:
Exact Audio Copy V0.99 prebeta 5 from 4. May 2009
EAC extraction logfile from 25. July 2011, 16:49
Звуки Му / Грубый закат
Used drive : TSSTcorpCDDVDW SH-S203B Adapter: 2 ID: 0
Read mode : Secure
Utilize accurate stream : Yes
Defeat audio cache : Yes
Make use of C2 pointers : No
Read offset correction : 6
Overread into Lead-In and Lead-Out : No
Fill up missing offset samples with silence : Yes
Delete leading and trailing silent blocks : No
Null samples used in CRC calculations : Yes
Used interface : Native Win32 interface for Win NT & 2000
Used output format : Internal WAV Routines
Sample format : 44.100 Hz; 16 Bit; Stereo
TOC of the extracted CD
Track | Start | Length | Start sector | End sector
---------------------------------------------------------
1 | 0:00.00 | 4:06.12 | 0 | 18461
2 | 4:06.12 | 4:58.13 | 18462 | 40824
3 | 9:04.25 | 5:04.27 | 40825 | 63651
4 | 14:08.52 | 5:46.33 | 63652 | 89634
5 | 19:55.10 | 4:30.47 | 89635 | 109931
6 | 24:25.57 | 4:47.35 | 109932 | 131491
7 | 29:13.17 | 5:26.58 | 131492 | 155999
8 | 34:40.00 | 4:51.00 | 156000 | 177824
Range status and errors
Selected range
Filename C:\Incoming\Звуки Му 1995-Грубый закат [MR 95040 CD]\Звуки Му - Грубый закат.wav
Peak level 96.1 %
Range quality 100.0 %
Test CRC 63FF21FF
Copy CRC 63FF21FF
Copy OK
No errors occurred
AccurateRip summary
Track 1 not present in database
Track 2 not present in database
Track 3 not present in database
Track 4 not present in database
Track 5 not present in database
Track 6 not present in database
Track 7 not present in database
Track 8 not present in database
None of the tracks are present in the AccurateRip database
End of status report

Отчёт auCDtect Task manager:

Код:
DON'T MODIFY THIS FILE
-----------------------
PERFORMER: auCDtect Task Manager, ver. 1.6.0 RC1 build 1.6.0.1
Copyright (c) 2008-2010 y-soft. All rights reserved
http://y-soft.org
ANALYZER: auCDtect: CD records authenticity detector, version 0.8.2
Copyright (c) 2004 Oleg Berngardt. All rights reserved.
Copyright (c) 2004 Alexander Djourik. All rights reserved.
FILE: Звуки Му - Грубый закат.flac
  Size: 245900416 Hash: 565B872B70421941D47E6D2BAEA8E2F7 Accuracy: -m0
  Conclusion: CDDA 100%
  Signature: 98013D16219D1F1BABD10AF9197CC90266D5AE0D

1995 - Инструментальные вариации

Продолжительность: 00:39:02
01. Стриптиз
02. Восторг
03. Начитался книг
04. Больничный лист
05. Консервный нож
06. Возле Тимирязева
07. Сладкая жизнь
08. Bonus track 1
09. Bonus track 2
10. Bonus track 3

Отчёт ЕАС:

Код:
Exact Audio Copy V1.0 beta 1 from 15. November 2010
EAC extraction logfile from 12. August 2011, 22:14
Звуки Му / Инструментальные вариации
Used drive : PLEXTOR CD-R PREMIUM2 Adapter: 4 ID: 0
Read mode : Secure
Utilize accurate stream : Yes
Defeat audio cache : Yes
Make use of C2 pointers : No
Read offset correction : 30
Overread into Lead-In and Lead-Out : No
Fill up missing offset samples with silence : Yes
Delete leading and trailing silent blocks : No
Null samples used in CRC calculations : Yes
Used interface : Installed external ASPI interface
Used output format : Internal WAV Routines
Sample format : 44.100 Hz; 16 Bit; Stereo
TOC of the extracted CD
Track | Start | Length | Start sector | End sector
---------------------------------------------------------
1 | 0:00.00 | 4:48.43 | 0 | 21642
2 | 4:48.43 | 2:48.29 | 21643 | 34271
3 | 7:36.72 | 1:03.74 | 34272 | 39070
4 | 8:40.71 | 3:14.73 | 39071 | 53693
5 | 11:55.69 | 1:35.64 | 53694 | 60882
6 | 13:31.58 | 4:19.33 | 60883 | 80340
7 | 17:51.16 | 5:28.39 | 80341 | 104979
8 | 23:19.55 | 5:54.41 | 104980 | 131570
9 | 29:14.21 | 7:29.48 | 131571 | 165293
10 | 36:43.69 | 2:18.70 | 165294 | 175713
Range status and errors
Selected range
Filename C:\Temp\Звуки Му - Инструментальные вариации.wav
Peak level 93.2 %
Extraction speed 0.2 X
Range quality 100.0 %
Copy CRC 074BC8CE
Copy OK
No errors occurred
AccurateRip summary
Track 1 cannot be verified as accurate (confidence 1) [86E3A8F2], AccurateRip returned [1C2AD882]
Track 2 cannot be verified as accurate (confidence 1) [03D0C591], AccurateRip returned [647998AD]
Track 3 cannot be verified as accurate (confidence 1) [77169564], AccurateRip returned [A4E852C9]
Track 4 cannot be verified as accurate (confidence 1) [8C72DD68], AccurateRip returned [9D37CE61]
Track 5 cannot be verified as accurate (confidence 1) [72B51BF5], AccurateRip returned [B4B10DD2]
Track 6 cannot be verified as accurate (confidence 1) [5D7F8494], AccurateRip returned [921FFF23]
Track 7 cannot be verified as accurate (confidence 1) [01C69F19], AccurateRip returned [85C5D16A]
Track 8 cannot be verified as accurate (confidence 1) [9C9C7F52], AccurateRip returned [A46D3D7A]
Track 9 cannot be verified as accurate (confidence 1) [853184BF], AccurateRip returned [18C3FC8B]
Track 10 cannot be verified as accurate (confidence 1) [732388E9], AccurateRip returned [F03C1D16]
No tracks could be verified as accurate
You may have a different pressing from the one(s) in the database
End of status report
==== Log checksum 13878F32A37AE1E561622F7DAF8D6F3968C4E63C4DE4D4FEF7DCD57C834FCBE1 ====

Отчёт auCDtect Task manager:

Код:
DON'T MODIFY THIS FILE
-----------------------
PERFORMER: auCDtect Task Manager, ver. 1.6.0 RC1 build 1.6.0.1
Copyright (c) 2008-2010 y-soft. All rights reserved
http://y-soft.org
ANALYZER: auCDtect: CD records authenticity detector, version 0.8.2
Copyright (c) 2004 Oleg Berngardt. All rights reserved.
Copyright (c) 2004 Alexander Djourik. All rights reserved.
FILE: Звуки Му - Инструментальные вариации.flac
  Size: 208941725 Hash: 423F8702839FC4DCBE6AD87A4A24755D Accuracy: -m0
  Conclusion: CDDA 99%
  Signature: 44BE3CE7F429F9B125F0FF2E2FC72AC799F20153

1996 - Жизнь амфибий, как она есть

Продолжительность: 00:41:10
01. Жизнь амфибий
02. Черноморская чайка
03. Хлестаков
04. Honey Baby
05. В деревне
06. Диалоги с Волковым
07. Жуков

Отчёт ЕАС:

Код:
Exact Audio Copy V0.99 prebeta 5 from 4. May 2009
EAC extraction logfile from 26. July 2011, 9:38
Звуки Му / Жизнь амфибий, как она есть
Used drive : TSSTcorpCDDVDW SH-S203B Adapter: 2 ID: 0
Read mode : Secure
Utilize accurate stream : Yes
Defeat audio cache : Yes
Make use of C2 pointers : No
Read offset correction : 6
Overread into Lead-In and Lead-Out : No
Fill up missing offset samples with silence : Yes
Delete leading and trailing silent blocks : No
Null samples used in CRC calculations : Yes
Used interface : Native Win32 interface for Win NT & 2000
Used output format : Internal WAV Routines
Sample format : 44.100 Hz; 16 Bit; Stereo
TOC of the extracted CD
Track | Start | Length | Start sector | End sector
---------------------------------------------------------
1 | 0:00.00 | 8:55.38 | 0 | 40162
2 | 8:55.38 | 4:03.08 | 40163 | 58395
3 | 12:58.46 | 8:16.03 | 58396 | 95598
4 | 21:14.49 | 4:55.37 | 95599 | 117760
5 | 26:10.11 | 9:25.08 | 117761 | 160143
6 | 35:35.19 | 4:42.57 | 160144 | 181350
7 | 40:18.01 | 0:52.31 | 181351 | 185281
Range status and errors
Selected range
Filename C:\Incoming\Звуки Му 1996-Жизнь амфибий, как она есть [MR 96132 CD]\Звуки Му - Жизнь амфибий, как она есть.wav
Peak level 86.8 %
Range quality 100.0 %
Test CRC 62A354F6
Copy CRC 62A354F6
Copy OK
No errors occurred
AccurateRip summary
Track 1 accurately ripped (confidence 2) [4B15AB00]
Track 2 accurately ripped (confidence 2) [AAAF460A]
Track 3 accurately ripped (confidence 2) [0A859277]
Track 4 accurately ripped (confidence 2) [B14D495B]
Track 5 accurately ripped (confidence 2) [A3885E3B]
Track 6 accurately ripped (confidence 2) [2771A6F1]
Track 7 accurately ripped (confidence 2) [66E4A627]
All tracks accurately ripped
End of status report

Отчёт auCDtect Task manager:

Код:
DON'T MODIFY THIS FILE
-----------------------
PERFORMER: auCDtect Task Manager, ver. 1.6.0 RC1 build 1.6.0.1
Copyright (c) 2008-2010 y-soft. All rights reserved
http://y-soft.org
ANALYZER: auCDtect: CD records authenticity detector, version 0.8.2
Copyright (c) 2004 Oleg Berngardt. All rights reserved.
Copyright (c) 2004 Alexander Djourik. All rights reserved.
FILE: Звуки Му - Жизнь амфибий, как она есть.flac
  Size: 246438000 Hash: BA456E037C401F885DF6F3E18B2B1F73 Accuracy: -m0
  Conclusion: CDDA 100%
  Signature: 6F2AAF6E81C883F344ECE2494357856187A62382

1996 - П.Мамонов 84-87 2CD

Продолжительность: 01:34:06

CD 1

Продолжительность: 00:45:10
01. Серый Голубь
02. Ремонт
03. Диатез
04. Восторг
05. Маша
06. Люся
07. Шубадуба Блюз
08. Темный МУ
09. Хорошая Песня
10. Союзпечать
11. Бумажные Цветы
12. Люляки Баб
13. Цветочки-лютики
14. Досуги-буги

Отчёт ЕАС:

Код:
Exact Audio Copy V0.99 prebeta 5 from 4. May 2009
Отчёт EAC об извлечении, выполненном 6. августа 2011, 16:51
Петр Мамонов / П. Мамонов 84-87
Дисковод: _NEC DVD_RW ND-3520AW Adapter: 4 ID: 1
Режим чтения : Достоверность
Использование точного потока : Да
Отключение кэша аудио : Да
Использование указателей C2 : Нет
Коррекция смещения при чтении : 48
Способность читать области Lead-in и Lead-out : Нет
Заполнение пропущенных сэмплов тишиной : Да
Удаление блоков с тишиной в начале и конце : Нет
При вычислениях CRC использовались нулевые сэмплы : Да
Интерфейс : Встроенный Win32-интерфейс для Win NT/2000
Выходной формат : Внутренние WAV-операции
Формат сэмплов : 44.100 Гц; 16 бит; стерео
TOC извлечённого CD
Трек | Старт | Длительность | Начальный сектор | Конечный сектор
---------------------------------------------------------------------
1 | 0:00.00 | 2:40.37 | 0 | 12036
2 | 2:40.37 | 2:57.23 | 12037 | 25334
3 | 5:37.60 | 2:00.17 | 25335 | 34351
4 | 7:38.02 | 2:41.30 | 34352 | 46456
5 | 10:19.32 | 2:37.40 | 46457 | 58271
6 | 12:56.72 | 3:05.73 | 58272 | 72219
7 | 16:02.70 | 3:06.30 | 72220 | 86199
8 | 19:09.25 | 3:09.65 | 86200 | 100439
9 | 22:19.15 | 6:32.25 | 100440 | 129864
10 | 28:51.40 | 3:12.12 | 129865 | 144276
11 | 32:03.52 | 3:04.25 | 144277 | 158101
12 | 35:08.02 | 3:10.58 | 158102 | 172409
13 | 38:18.60 | 3:35.40 | 172410 | 188574
14 | 41:54.25 | 3:15.62 | 188575 | 203261
Характеристики диапазона извлечения и сообщения об ошибках
Выбранный диапазон
Имя файла C:\Users\Family\Desktop\Новая папка (2)\Петр Мамонов - П. Мамонов 84-87.wav
Пиковый уровень 90.3 %
Качество диапазона 99.9 %
CRC копии C112ED3D
Копирование... OK
Ошибок не произошло
AccurateRip: сводка
Трек 1 нет в базе данных
Трек 2 нет в базе данных
Трек 3 нет в базе данных
Трек 4 нет в базе данных
Трек 5 нет в базе данных
Трек 6 нет в базе данных
Трек 7 нет в базе данных
Трек 8 нет в базе данных
Трек 9 нет в базе данных
Трек 10 нет в базе данных
Трек 11 нет в базе данных
Трек 12 нет в базе данных
Трек 13 нет в базе данных
Трек 14 нет в базе данных
Ни одного трека нет в базе AccurateRip
Конец отчёта

CD 2

Продолжительность: 00:48:56
01. Источник Заразы
02. Суперсизый Кинг
03. Крым
04. Наташа
05. 0-1
06. Сумасшедшая Королева
07. Б.Б.Б.
08. Утренние Фонари
09. Суперсизый Кинг II
10. Рабочая Песня
11. Оконное Стекло
12. Турист
13. Отдай Мои Вещи
14. Бутылка Водки
15. 5x5

Отчёт ЕАС:

Код:
Exact Audio Copy V0.99 prebeta 5 from 4. May 2009
Отчёт EAC об извлечении, выполненном 6. августа 2011, 19:50
Пётр Мамонов / П. Мамонов 84-87 (ДИСК 2)
Дисковод: _NEC DVD_RW ND-3520AW Adapter: 4 ID: 1
Режим чтения : Достоверность
Использование точного потока : Да
Отключение кэша аудио : Да
Использование указателей C2 : Нет
Коррекция смещения при чтении : 48
Способность читать области Lead-in и Lead-out : Нет
Заполнение пропущенных сэмплов тишиной : Да
Удаление блоков с тишиной в начале и конце : Нет
При вычислениях CRC использовались нулевые сэмплы : Да
Интерфейс : Встроенный Win32-интерфейс для Win NT/2000
Выходной формат : Внутренние WAV-операции
Формат сэмплов : 44.100 Гц; 16 бит; стерео
TOC извлечённого CD
Трек | Старт | Длительность | Начальный сектор | Конечный сектор
---------------------------------------------------------------------
1 | 0:00.00 | 4:36.00 | 0 | 20699
2 | 4:36.00 | 3:46.32 | 20700 | 37681
3 | 8:22.32 | 0:47.70 | 37682 | 41276
4 | 9:10.27 | 1:16.38 | 41277 | 47014
5 | 10:26.65 | 2:52.35 | 47015 | 59949
6 | 13:19.25 | 2:21.17 | 59950 | 70541
7 | 15:40.42 | 2:48.50 | 70542 | 83191
8 | 18:29.17 | 2:54.53 | 83192 | 96294
9 | 21:23.70 | 3:41.40 | 96295 | 112909
10 | 25:05.35 | 2:50.25 | 112910 | 125684
11 | 27:55.60 | 3:01.65 | 125685 | 139324
12 | 30:57.50 | 3:10.72 | 139325 | 153646
13 | 34:08.47 | 5:10.45 | 153647 | 176941
14 | 39:19.17 | 4:36.53 | 176942 | 197694
15 | 43:55.70 | 5:00.50 | 197695 | 220244
Характеристики диапазона извлечения и сообщения об ошибках
Выбранный диапазон
Имя файла C:\Users\Family\Desktop\Новая папка (2)\CD#2\Пётр Мамонов - П. Мамонов 84-87 (ДИСК 2).wav
Пиковый уровень 99.9 %
Качество диапазона 99.9 %
CRC копии B478E526
Копирование... OK
Ошибок не произошло
AccurateRip: сводка
Трек 1 нет в базе данных
Трек 2 нет в базе данных
Трек 3 нет в базе данных
Трек 4 нет в базе данных
Трек 5 нет в базе данных
Трек 6 нет в базе данных
Трек 7 нет в базе данных
Трек 8 нет в базе данных
Трек 9 нет в базе данных
Трек 10 нет в базе данных
Трек 11 нет в базе данных
Трек 12 нет в базе данных
Трек 13 нет в базе данных
Трек 14 нет в базе данных
Трек 15 нет в базе данных
Ни одного трека нет в базе AccurateRip
Конец отчёта

Отчёт auCDtect Task manager:

Код:
DON'T MODIFY THIS FILE
-----------------------
PERFORMER: auCDtect Task Manager, ver. 1.6.0 RC1 build 1.6.0.1
Copyright (c) 2008-2010 y-soft. All rights reserved
http://y-soft.org
ANALYZER: auCDtect: CD records authenticity detector, version 0.8.2
Copyright (c) 2004 Oleg Berngardt. All rights reserved.
Copyright (c) 2004 Alexander Djourik. All rights reserved.
FILE: Петр Мамонов - П. Мамонов 84-87 (CD2).flac
  Size: 245536752 Hash: C59C2373F65C69B8F2923AC8FC63F64E Accuracy: -m0
  Conclusion: CDDA 100%
  Signature: 7C6948905DED9E6FE801FF03EB4EB13BB45C2DF0
FILE: Петр Мамонов - П. Мамонов 84-87 (CD1).flac
  Size: 174474932 Hash: 645599102923E4BDFDB00F1CB0C4266B Accuracy: -m0
  Conclusion: CDDA 100%
  Signature: FDC7DC87BC0827581115343469D3526F54B44153

1997 - Грубый закат (Dance Mix) (tracks + .cue)

Продолжительность: 00:36:23
01. Канава
02. Новоселы
03. Больничный Лист
04. Бронепоезд
05. Брат
06. Консервный Нож
07. Источник Заразы

Отчёт ЕАС:

Код:
Exact Audio Copy V0.99 prebeta 5 from 4. May 2009
Отчёт EAC об извлечении, выполненном 12. января 2010, 20:01
Звуки Му / Грубый Закат Dance Mix
Дисковод: PIONEER DVD-RW DVR-110D Adapter: 0 ID: 0
Режим чтения : Достоверность
Использование точного потока : Да
Отключение кэша аудио : Да
Использование указателей C2 : Нет
Коррекция смещения при чтении : 48
Способность читать области Lead-in и Lead-out : Нет
Заполнение пропущенных сэмплов тишиной : Да
Удаление блоков с тишиной в начале и конце : Нет
При вычислениях CRC использовались нулевые сэмплы : Да
Интерфейс : Встроенный Win32-интерфейс для Win NT/2000
Обработка зазоров : Добавлено к предыдущему треку
Выходной формат : Пользовательский кодировщик
Выбранный битрейт : 768 kBit/s
Качество : Высокий
Добавление ID3-тэга : Нет
Утилита сжатия : C:\Program Files (x86)\Exact Audio Copy\Flac\flac.exe
Дополнительные параметры : -8 -V -T "ARTIST=%a" -T "TITLE=%t" -T "ALBUM=%g" -T "DATE=%y" -T "TRACKNUMBER=%n" -T "GENRE=%m" -T "COMMENT=%e" %s -o %d
TOC извлечённого CD
Трек | Старт | Длительность | Начальный сектор | Конечный сектор
---------------------------------------------------------------------
1 | 0:00.00 | 6:13.28 | 0 | 28002
2 | 6:13.28 | 4:13.25 | 28003 | 47002
3 | 10:26.53 | 5:23.58 | 47003 | 71285
4 | 15:50.36 | 3:39.38 | 71286 | 87748
5 | 19:29.74 | 5:49.01 | 87749 | 113924
6 | 25:19.00 | 7:23.61 | 113925 | 147210
7 | 32:42.61 | 3:40.44 | 147211 | 163754
Трек 1
Имя файла C:\Users\Администратор\Desktop\EAC\Звуки Му\1997 - Грубый Закат Dance Mix\01 - Канава.wav
Длина предзазора 0:00:02.00
Пиковый уровень 79.4 %
Качество трека 100.0 %
CRC теста 22DABDDF
CRC копии 22DABDDF
Трек не обнаружен в базе AccurateRip
Копирование... OK
Трек 2
Имя файла C:\Users\Администратор\Desktop\EAC\Звуки Му\1997 - Грубый Закат Dance Mix\02 - Новоселы.wav
Пиковый уровень 72.3 %
Качество трека 99.9 %
CRC теста 7E6CBDA6
CRC копии 7E6CBDA6
Трек не обнаружен в базе AccurateRip
Копирование... OK
Трек 3
Имя файла C:\Users\Администратор\Desktop\EAC\Звуки Му\1997 - Грубый Закат Dance Mix\03 - Больничный Лист.wav
Пиковый уровень 77.4 %
Качество трека 99.9 %
CRC теста 9C4AC155
CRC копии 9C4AC155
Трек не обнаружен в базе AccurateRip
Копирование... OK
Трек 4
Имя файла C:\Users\Администратор\Desktop\EAC\Звуки Му\1997 - Грубый Закат Dance Mix\04 - Бронепоезд.wav
Пиковый уровень 74.7 %
Качество трека 99.9 %
CRC теста EDBBA5BB
CRC копии EDBBA5BB
Трек не обнаружен в базе AccurateRip
Копирование... OK
Трек 5
Имя файла C:\Users\Администратор\Desktop\EAC\Звуки Му\1997 - Грубый Закат Dance Mix\05 - Брат.wav
Пиковый уровень 77.7 %
Качество трека 99.9 %
CRC теста 14AA0B27
CRC копии 14AA0B27
Трек не обнаружен в базе AccurateRip
Копирование... OK
Трек 6
Имя файла C:\Users\Администратор\Desktop\EAC\Звуки Му\1997 - Грубый Закат Dance Mix\06 - Консервный Нож.wav
Пиковый уровень 79.4 %
Качество трека 100.0 %
CRC теста 31EBE2DD
CRC копии 31EBE2DD
Трек не обнаружен в базе AccurateRip
Копирование... OK
Трек 7
Имя файла C:\Users\Администратор\Desktop\EAC\Звуки Му\1997 - Грубый Закат Dance Mix\07 - Источник Заразы.wav
Длина предзазора 0:00:00.35
Пиковый уровень 68.0 %
Качество трека 100.0 %
CRC теста EE6F013C
CRC копии EE6F013C
Трек не обнаружен в базе AccurateRip
Копирование... OK
Ни одного трека нет в базе AccurateRip
Ошибок не произошло
Конец отчёта

Отчёт auCDtect Task manager:

Код:
DON'T MODIFY THIS FILE
-----------------------
PERFORMER: auCDtect Task Manager, ver. 1.6.0 RC1 build 1.6.0.1
Copyright (c) 2008-2010 y-soft. All rights reserved
http://y-soft.org
ANALYZER: auCDtect: CD records authenticity detector, version 0.8.2
Copyright (c) 2004 Oleg Berngardt. All rights reserved.
Copyright (c) 2004 Alexander Djourik. All rights reserved.
FILE: 07 - Источник Заразы.flac
  Size: 22404865 Hash: F822F4EA735597576225BA57ED11859F Accuracy: -m0
  Conclusion: CDDA 100%
  Signature: 3B4C85A9F52F55147A485766A41D7F680900351F
FILE: 06 - Консервный Нож.flac
  Size: 39689870 Hash: BC8AB945824A7F05294F6B9F07EFB0DE Accuracy: -m0
  Conclusion: CDDA 100%
  Signature: 815E9ECFA86B4F124EE1491F430C9BF5737FC7E8
FILE: 05 - Брат.flac
  Size: 29756664 Hash: 2737B8E7727132293119FE751D83EEEC Accuracy: -m0
  Conclusion: CDDA 100%
  Signature: 20E95FE8201549C086B8402A0E4F327EC1A11EFF
FILE: 04 - Бронепоезд.flac
  Size: 20125414 Hash: DC41CD03DFC6E5191667FE3400C26F99 Accuracy: -m0
  Conclusion: CDDA 100%
  Signature: 9DF1A48B0384302B4A1E289FA4ADC29065B39FB8
FILE: 03 - Больничный Лист.flac
  Size: 31019572 Hash: 89FA4D7C06876F335F2DB3F21FC78EC7 Accuracy: -m0
  Conclusion: CDDA 100%
  Signature: C0A6639399FF58853DA142ED4E7840BAEF72571D
FILE: 02 - Новоселы.flac
  Size: 25770873 Hash: 7067CCED3307626CA677793C7B40C6B1 Accuracy: -m0
  Conclusion: CDDA 99%
  Signature: 50494F872DB206ED1C5A7FD1B4FFF0AA310C90AE
FILE: 01 - Канава.flac
  Size: 35290570 Hash: C32874D829C941AA784ADE5F8BC22108 Accuracy: -m0
  Conclusion: CDDA 100%
  Signature: CC0EA5968CE3FF1393C69E3C1825B9F996303252

1997 - Легенды Русского Рока

Продолжительность: 01:15:12
01. Серый Голубь
02. Бумажные Цветы
03. 0 - 1
04. Источник Заразы
05. Ремонт
06. Бутылка Водки
07. Досуги Буги
08. Новосёлы
09. Забытый Секс
10. Лень
11. Цветы На Огороде
12. Транснадёжность
13. Турист
14. Наташа
15. Люляки Баб
16. Гадопяткина
17. Кактус
18. Шуба Дуба Блюз
19. Нестрашный Му

Отчёт ЕАС:

Код:
Exact Audio Copy V0.99 prebeta 3 from 28. July 2007
Отчёт EAC об извлечении, выполненном 22. ноября 2007, 19:55
Звуки Му / Легенды Русского Рока
Дисковод: PIONEER DVD-RW DVR-111D Adapter: 3 ID: 0
Режим чтения : Достоверность
Использование точного потока : Да
Отключение кэша аудио : Да
Использование указателей C2 : Нет
Коррекция смещения при чтении : 48
Способность читать области Lead-in и Lead-out : Нет
Заполнение пропущенных сэмплов тишиной : Да
Удаление блоков с тишиной в начале и конце : Нет
При вычислениях CRC использовались нулевые сэмплы : Да
Интерфейс : Встроенный Win32-интерфейс для Win NT/2000
Выходной формат : Внутренние WAV-операции
Формат сэмплов : 44.100 Гц; 16 бит; стерео
TOC извлечённого CD
Трек | Старт | Длительность | Начальный сектор | Конечный сектор
---------------------------------------------------------------------
1 | 0:00.00 | 3:45.62 | 0 | 16936
2 | 3:45.62 | 3:01.55 | 16937 | 30566
3 | 6:47.42 | 3:19.38 | 30567 | 45529
4 | 10:07.05 | 2:47.20 | 45530 | 58074
5 | 12:54.25 | 3:45.60 | 58075 | 75009
6 | 16:40.10 | 4:18.62 | 75010 | 94421
7 | 20:58.72 | 3:26.23 | 94422 | 109894
8 | 24:25.20 | 4:47.60 | 109895 | 131479
9 | 29:13.05 | 6:14.62 | 131480 | 159591
10 | 35:27.67 | 4:50.38 | 159592 | 181379
11 | 40:18.30 | 4:58.42 | 181380 | 203771
12 | 45:16.72 | 3:13.37 | 203772 | 218283
13 | 48:30.34 | 2:19.23 | 218284 | 228731
14 | 50:49.57 | 3:52.48 | 228732 | 246179
15 | 54:42.30 | 2:49.50 | 246180 | 258904
16 | 57:32.05 | 5:21.27 | 258905 | 283006
17 | 62:53.32 | 2:53.45 | 283007 | 296026
18 | 65:47.02 | 3:49.50 | 296027 | 313251
19 | 69:36.52 | 5:35.25 | 313252 | 338401
Характеристики диапазона извлечения и сообщения об ошибках
Выбранный диапазон
Имя файла C:\Program Files\Exact Audio Copy\Звуки Му - Легенды Русского Рока\Звуки Му - Легенды Русского Рока.wav
Пиковый уровень 82.2 %
Качество диапазона 100.0 %
CRC копии 40D8CDFC
Копирование... OK
Ошибок не произошло
Конец отчёта

Отчёт auCDtect Task manager:

Код:
DON'T MODIFY THIS FILE
-----------------------
PERFORMER: auCDtect Task Manager, ver. 1.6.0 RC1 build 1.6.0.1
Copyright (c) 2008-2010 y-soft. All rights reserved
http://y-soft.org
ANALYZER: auCDtect: CD records authenticity detector, version 0.8.2
Copyright (c) 2004 Oleg Berngardt. All rights reserved.
Copyright (c) 2004 Alexander Djourik. All rights reserved.
FILE: Звуки Му - Легенды Русского Рока.flac
  Size: 384127687 Hash: CEE20E5055728AF2013953506F6169F9 Accuracy: -m0
  Conclusion: CDDA 100%
  Signature: 13984C9306826FED058545C5ED59859A9EF57977

1999 - Шкура неубитого

Продолжительность: 00:52:39
01. Грубый закат
02. Отдай мои вещи
03. Обед на каждый день
04. Новый год
05. Леонов
06. Бабик
07. ПНМ
08. Me & Motocicle
09. Чайка
10. Люся
11. Блюз А
12. -- - -- - -- - -- -
13. Блюз Б

Отчёт ЕАС:

Код:
Exact Audio Copy V0.99 prebeta 5 from 4. May 2009
EAC extraction logfile from 25. July 2011, 17:14
Звуки Му / Шкура неубитого
Used drive : TSSTcorpCDDVDW SH-S203B Adapter: 2 ID: 0
Read mode : Secure
Utilize accurate stream : Yes
Defeat audio cache : Yes
Make use of C2 pointers : No
Read offset correction : 6
Overread into Lead-In and Lead-Out : No
Fill up missing offset samples with silence : Yes
Delete leading and trailing silent blocks : No
Null samples used in CRC calculations : Yes
Used interface : Native Win32 interface for Win NT & 2000
Used output format : Internal WAV Routines
Sample format : 44.100 Hz; 16 Bit; Stereo
TOC of the extracted CD
Track | Start | Length | Start sector | End sector
---------------------------------------------------------
1 | 0:00.00 | 6:52.07 | 0 | 30906
2 | 6:52.07 | 5:54.56 | 30907 | 57512
3 | 12:46.63 | 5:50.23 | 57513 | 83785
4 | 18:37.11 | 2:12.15 | 83786 | 93700
5 | 20:49.26 | 2:37.20 | 93701 | 105495
6 | 23:26.46 | 3:01.29 | 105496 | 119099
7 | 26:28.00 | 3:30.32 | 119100 | 134881
8 | 29:58.32 | 1:46.16 | 134882 | 142847
9 | 31:44.48 | 0:43.74 | 142848 | 146146
10 | 32:28.47 | 8:27.62 | 146147 | 184233
11 | 40:56.34 | 8:15.38 | 184234 | 221396
12 | 49:11.72 | 0:49.23 | 221397 | 225094
13 | 50:01.20 | 2:38.29 | 225095 | 236973
Range status and errors
Selected range
Filename C:\Incoming\Звуки Му 1999-Шкура неубитого [MR 99623 CD]\Звуки Му - Шкура неубитого.wav
Peak level 96.9 %
Range quality 100.0 %
Test CRC 7DD606E9
Copy CRC 7DD606E9
Copy OK
No errors occurred
AccurateRip summary
Track 1 accurately ripped (confidence 1) [EC84FA00]
Track 2 accurately ripped (confidence 1) [3A5BDC76]
Track 3 accurately ripped (confidence 1) [39F661DD]
Track 4 accurately ripped (confidence 1) [AB88D639]
Track 5 accurately ripped (confidence 1) [C1425395]
Track 6 accurately ripped (confidence 1) [3585A631]
Track 7 accurately ripped (confidence 1) [DFBD0659]
Track 8 accurately ripped (confidence 1) [A426FA88]
Track 9 accurately ripped (confidence 1) [918E8DD7]
Track 10 accurately ripped (confidence 1) [05DF6E5E]
Track 11 accurately ripped (confidence 1) [B38F2CF4]
Track 12 accurately ripped (confidence 1) [5EDAB989]
Track 13 accurately ripped (confidence 1) [409D1524]
All tracks accurately ripped
End of status report

Отчёт auCDtect Task manager:

Код:
DON'T MODIFY THIS FILE
-----------------------
PERFORMER: auCDtect Task Manager, ver. 1.6.0 RC1 build 1.6.0.1
Copyright (c) 2008-2010 y-soft. All rights reserved
http://y-soft.org
ANALYZER: auCDtect: CD records authenticity detector, version 0.8.2
Copyright (c) 2004 Oleg Berngardt. All rights reserved.
Copyright (c) 2004 Alexander Djourik. All rights reserved.
FILE: Звуки Му - Шкура неубитого.flac
  Size: 249673456 Hash: BD0DE7601298D2FD68BA8F8E95C532B4 Accuracy: -m0
  Conclusion: CDDA 100%
  Signature: 9A8C78FEE27C14C47544043C2502E21F5919E267

2000 - Набрал хороших на один компакт

Продолжительность: 00:55:42
01. Забытый секс
02. Спиритизм
03. Люся
04. Михалков
05. Бронепоезд
06. Консервный нож
07. Канава
08. Новоселы
09. Лифт на небо
10. Курочка-Ряба
11. Серый голубь
12. Крым

Отчёт ЕАС:

Код:
Exact Audio Copy V1.0 beta 3 from 29. August 2011
Отчёт EAC об извлечении, выполненном 7. марта 2012, 20:40
Звуки МУ / Набрал хороших на один компакт (сборник)
Дисковод: _NEC DVD_RW ND-4550A Adapter: 0 ID: 0
Режим чтения : Достоверность
Использование точного потока : Да
Отключение кэша аудио : Да
Использование указателей C2 : Нет
Коррекция смещения при чтении : 48
Способность читать области Lead-in и Lead-out : Нет
Заполнение пропущенных сэмплов тишиной : Да
Удаление блоков с тишиной в начале и конце : Нет
При вычислениях CRC использовались нулевые сэмплы : Да
Интерфейс : Встроенный Win32-интерфейс для Win NT/2000
Выходной формат : Пользовательский кодировщик
Выбранный битрейт : 128 kBit/s
Качество : Высокий
Добавление ID3-тега : Нет
Утилита сжатия : C:\Program Files\Exact Audio Copy\FLAC\FLAC.EXE
Дополнительные параметры : -6 -V -T "ARTIST=%artist%" -T "TITLE=%title%" -T "ALBUM=%albumtitle%" -T "DATE=%year%" -T "TRACKNUMBER=%tracknr%" -T "GENRE=%genre%" -T "COMMENT=%comment%" -T "BAND=%albuminterpret%" -T "ALBUMARTIST=%albuminterpret%" -T "COMPOSER=%composer%" %haslyrics%--tag-from-file=LYRICS="%lyricsfile%"%haslyrics% -T "DISCNUMBER=%cdnumber%" -T "TOTALDISCS=%totalcds%" -T "TOTALTRACKS=%numtracks%" %hascover%--picture="%coverfile%"%hascover% %source% -o %dest%
TOC извлечённого CD
Трек | Старт | Длительность | Начальный сектор | Конечный сектор
---------------------------------------------------------------------
1 | 0:00.00 | 6:19.52 | 0 | 28476
2 | 6:19.52 | 5:00.55 | 28477 | 51031
3 | 11:20.32 | 10:13.68 | 51032 | 97074
4 | 21:34.25 | 1:09.01 | 97075 | 102250
5 | 22:43.26 | 5:00.13 | 102251 | 124763
6 | 27:43.39 | 5:48.33 | 124764 | 150896
7 | 33:31.72 | 4:32.47 | 150897 | 171343
8 | 38:04.44 | 4:49.35 | 171344 | 193053
9 | 42:54.04 | 5:02.00 | 193054 | 215703
10 | 47:56.04 | 4:16.36 | 215704 | 234939
11 | 52:12.40 | 2:42.37 | 234940 | 247126
12 | 54:55.02 | 0:47.70 | 247127 | 250721
Характеристики диапазона извлечения и сообщения об ошибках
Выбранный диапазон
Имя файла C:\Documents and Settings\Пользователь\Мои документы\Раздачи на torrents.ru\Звуки МУ - Набрал хороших на один компакт (сборник).wav
Пиковый уровень 99.9 %
Скорость извлечения 2.6 X
Качество диапазона 99.8 %
CRC теста DC2A9E99
CRC копии DC2A9E99
Копирование... OK
Ошибок не произошло
AccurateRip: сводка
Трек 1 отсутствует в базе данных
Трек 2 отсутствует в базе данных
Трек 3 отсутствует в базе данных
Трек 4 отсутствует в базе данных
Трек 5 отсутствует в базе данных
Трек 6 отсутствует в базе данных
Трек 7 отсутствует в базе данных
Трек 8 отсутствует в базе данных
Трек 9 отсутствует в базе данных
Трек 10 отсутствует в базе данных
Трек 11 отсутствует в базе данных
Трек 12 отсутствует в базе данных
Ни одного трека нет в базе AccurateRip
Конец отчёта
==== Контрольная сумма отчёта 5FA7E4B202B37D40F2F47643674F3A71E13F1070E49AC8C15B71BC3F2966B90E ====

Отчёт auCDtect Task manager:

Код:
DON'T MODIFY THIS FILE
-----------------------
PERFORMER: auCDtect Task Manager, ver. 1.6.0 RC1 build 1.6.0.1
Copyright (c) 2008-2010 y-soft. All rights reserved
http://y-soft.org
ANALYZER: auCDtect: CD records authenticity detector, version 0.8.2
Copyright (c) 2004 Oleg Berngardt. All rights reserved.
Copyright (c) 2004 Alexander Djourik. All rights reserved.
FILE: Звуки Му - Набрал хороших на один компакт.flac
  Size: 329479072 Hash: 5736352AEA088728575F9B1702517242 Accuracy: -m0
  Conclusion: CDDA 100%
  Signature: 151B4414A8185A79F43CC49BE499164B1951147A

2000 - Шоколадный Пушкин

Продолжительность: 00:56:54
01. Бездомный пес
02. Он проснется
03. Рулла
04. Бунтари
05. П.Ж.
06. Уругвай
07. Крам
08. Машины
09. Звездная
10. Ма...
11. П.Ж. симфо
12. Рэп-2
13. Чего хочешь
14. Конец+

Отчёт ЕАС:

Код:
EAC extraction logfile from 16. September 2006, 13:49 for CD
Звуки Му / Шоколадный Пушкин
Used drive  : QSI     CDRW/DVD SBW242U   Adapter: 1  ID: 0
Read mode   : Secure with NO C2, accurate stream, disable cache
Read offset correction : 0
Overread into Lead-In and Lead-Out : No
Used output format : Monkey's Audio Lossless Encoder v3.99 DLL
                     High Lossless Compression
Other options      :
    Fill up missing offset samples with silence : Yes
    Delete leading and trailing silent blocks : No
    Native Win32 interface for Win NT & 2000
Range status and errors
Selected range
     Filename D:\cd_temp\pushkin.ape
     Peak level 89.1 %
     Range quality 99.9 %
     CRC 6F4BC616
     Copy OK
No errors occured
End of status report

Отчёт auCDtect Task manager:

Код:
DON'T MODIFY THIS FILE
-----------------------
PERFORMER: auCDtect Task Manager, ver. 1.6.0 RC1 build 1.6.0.1
Copyright (c) 2008-2010 y-soft. All rights reserved
http://y-soft.org
ANALYZER: auCDtect: CD records authenticity detector, version 0.8.2
Copyright (c) 2004 Oleg Berngardt. All rights reserved.
Copyright (c) 2004 Alexander Djourik. All rights reserved.
FILE: Звуки Му - Шоколадный Пушкин.flac
  Size: 287066545 Hash: 6DB61A53CBE88D3856072F736AA7803E Accuracy: -m0
  Conclusion: CDDA 100%
  Signature: 140B9D8E67D54993D6D8A40D1A7531810615D852

2002 - Шкура неубитого-2

Продолжительность: 00:51:46
01. Дорога
02. По вашим просьбам
03. Лотос
04. Электрические мужички
05. Кнопочки
06. б/п
07. Усталость
08. Резкие тени
09. Кактус (Instr.)
10. Ученичок
11. Весёлая
12. Куколка
13. Все сволочи
14. Дежурный человек
15. Ветер. Люди.

Отчёт ЕАС:

Код:
Exact Audio Copy V0.99 prebeta 5 from 4. May 2009
EAC extraction logfile from 25. July 2011, 16:30
Звуки Му / Шкура неубитого-2
Used drive : TSSTcorpCDDVDW SH-S203B Adapter: 2 ID: 0
Read mode : Secure
Utilize accurate stream : Yes
Defeat audio cache : Yes
Make use of C2 pointers : No
Read offset correction : 6
Overread into Lead-In and Lead-Out : No
Fill up missing offset samples with silence : Yes
Delete leading and trailing silent blocks : No
Null samples used in CRC calculations : Yes
Used interface : Native Win32 interface for Win NT & 2000
Used output format : Internal WAV Routines
Sample format : 44.100 Hz; 16 Bit; Stereo
TOC of the extracted CD
Track | Start | Length | Start sector | End sector
---------------------------------------------------------
1 | 0:00.00 | 5:07.72 | 0 | 23096
2 | 5:07.72 | 2:02.25 | 23097 | 32271
3 | 7:10.22 | 5:25.72 | 32272 | 56718
4 | 12:36.19 | 6:33.67 | 56719 | 86260
5 | 19:10.11 | 4:51.67 | 86261 | 108152
6 | 24:02.03 | 2:18.15 | 108153 | 118517
7 | 26:20.18 | 2:10.61 | 118518 | 128328
8 | 28:31.04 | 1:37.12 | 128329 | 135615
9 | 30:08.16 | 3:26.39 | 135616 | 151104
10 | 33:34.55 | 6:46.68 | 151105 | 181622
11 | 40:21.48 | 1:13.37 | 181623 | 187134
12 | 41:35.10 | 2:17.25 | 187135 | 197434
13 | 43:52.35 | 2:03.12 | 197435 | 206671
14 | 45:55.47 | 4:47.51 | 206672 | 228247
15 | 50:43.23 | 1:02.58 | 228248 | 232955
Range status and errors
Selected range
Filename C:\Incoming\Звуки Му 2002-Шкура неубитого-2 [RMG OM-12-02]\Звуки Му - Шкура неубитого-2.wav
Peak level 100.0 %
Range quality 100.0 %
Test CRC 4FD5EECD
Copy CRC 4FD5EECD
Copy OK
No errors occurred
AccurateRip summary
Track 1 accurately ripped (confidence 1) [DB82AE7A]
Track 2 accurately ripped (confidence 1) [EE0406E7]
Track 3 accurately ripped (confidence 1) [DF8C015B]
Track 4 accurately ripped (confidence 1) [4E8A7206]
Track 5 accurately ripped (confidence 1) [3B5CBE20]
Track 6 accurately ripped (confidence 1) [E35B5821]
Track 7 accurately ripped (confidence 1) [63057C04]
Track 8 accurately ripped (confidence 1) [52E3914E]
Track 9 accurately ripped (confidence 1) [EF2FE601]
Track 10 accurately ripped (confidence 1) [95527ADF]
Track 11 accurately ripped (confidence 1) [58B13983]
Track 12 accurately ripped (confidence 1) [45534BBE]
Track 13 accurately ripped (confidence 2) [539F7A31]
Track 14 accurately ripped (confidence 1) [3B5B5F4C]
Track 15 accurately ripped (confidence 1) [7187BFB6]
All tracks accurately ripped
End of status report

Отчёт auCDtect Task manager:

Код:
DON'T MODIFY THIS FILE
-----------------------
PERFORMER: auCDtect Task Manager, ver. 1.6.0 RC1 build 1.6.0.1
Copyright (c) 2008-2010 y-soft. All rights reserved
http://y-soft.org
ANALYZER: auCDtect: CD records authenticity detector, version 0.8.2
Copyright (c) 2004 Oleg Berngardt. All rights reserved.
Copyright (c) 2004 Alexander Djourik. All rights reserved.
FILE: Звуки Му - Шкура неубитого-2.flac
  Size: 256492001 Hash: DA9D33CDFF5E8F138D075BAAADB8B2F3 Accuracy: -m0
  Conclusion: CDDA 100%
  Signature: 95BE9C305497B7009A8D5540241D350C8B8BDB89

2002 - Электро Т

Продолжительность: 00:43:13
01. Китай
02. Жуковский
03. Нежность
04. Паша пошел I
05. Паша пошел II
06. Выключатель
07. Комарики
08. Соло
09. Мама мия
10. Angel's Sweep
11. Константин Константинович
12. Катенька
13. Пара дымов
14. Тшш!
15. Веселая
16. Смерть

Отчёт ЕАС:

Код:
Exact Audio Copy V0.99 prebeta 5 from 4. May 2009
EAC extraction logfile from 25. July 2011, 16:11
Звуки Му / Электро Т.
Used drive : TSSTcorpCDDVDW SH-S203B Adapter: 2 ID: 0
Read mode : Secure
Utilize accurate stream : Yes
Defeat audio cache : Yes
Make use of C2 pointers : No
Read offset correction : 6
Overread into Lead-In and Lead-Out : No
Fill up missing offset samples with silence : Yes
Delete leading and trailing silent blocks : No
Null samples used in CRC calculations : Yes
Used interface : Native Win32 interface for Win NT & 2000
Used output format : Internal WAV Routines
Sample format : 44.100 Hz; 16 Bit; Stereo
TOC of the extracted CD
Track | Start | Length | Start sector | End sector
---------------------------------------------------------
1 | 0:00.00 | 2:23.21 | 0 | 10745
2 | 2:23.21 | 2:21.59 | 10746 | 21379
3 | 4:45.05 | 5:35.24 | 21380 | 46528
4 | 10:20.29 | 1:33.09 | 46529 | 53512
5 | 11:53.38 | 3:07.08 | 53513 | 67545
6 | 15:00.46 | 2:13.35 | 67546 | 77555
7 | 17:14.06 | 3:33.31 | 77556 | 93561
8 | 20:47.37 | 0:55.00 | 93562 | 97686
9 | 21:42.37 | 4:04.67 | 97687 | 116053
10 | 25:47.29 | 1:35.06 | 116054 | 123184
11 | 27:22.35 | 0:53.49 | 123185 | 127208
12 | 28:16.09 | 6:35.68 | 127209 | 156901
13 | 34:52.02 | 3:23.43 | 156902 | 172169
14 | 38:15.45 | 1:07.60 | 172170 | 177254
15 | 39:23.30 | 1:11.07 | 177255 | 182586
16 | 40:34.37 | 2:39.37 | 182587 | 194548
Range status and errors
Selected range
Filename C:\Incoming\Звуки Му 2002-Электро Т. [RMG OM-13-01]\Звуки Му - Электро Т..wav
Peak level 100.0 %
Range quality 100.0 %
Test CRC 7CE0D6E5
Copy CRC 7CE0D6E5
Copy OK
No errors occurred
AccurateRip summary
Track 1 not present in database
Track 2 not present in database
Track 3 not present in database
Track 4 not present in database
Track 5 not present in database
Track 6 not present in database
Track 7 not present in database
Track 8 not present in database
Track 9 not present in database
Track 10 not present in database
Track 11 not present in database
Track 12 not present in database
Track 13 not present in database
Track 14 not present in database
Track 15 not present in database
Track 16 not present in database
None of the tracks are present in the AccurateRip database
End of status report

Отчёт auCDtect Task manager:

Код:
DON'T MODIFY THIS FILE
-----------------------
PERFORMER: auCDtect Task Manager, ver. 1.6.0 RC1 build 1.6.0.1
Copyright (c) 2008-2010 y-soft. All rights reserved
http://y-soft.org
ANALYZER: auCDtect: CD records authenticity detector, version 0.8.2
Copyright (c) 2004 Oleg Berngardt. All rights reserved.
Copyright (c) 2004 Alexander Djourik. All rights reserved.
FILE: Звуки Му - Электро Т..flac
  Size: 164187964 Hash: 1D2A24B783B7DE7EEB0E6DF21C1646C9 Accuracy: -m0
  Conclusion: CDDA 100%
  Signature: 2D638FD41F4F376A798CD9B085CC6A2816B33C08

2003 - Великое молчание вагона метро

Продолжительность: 00:53:01
01. (M)
02. Прекрасный день
03. (M)
04. На пустынной станции
05. (M)
06. Слепой (Две Насти)
07. Би-меня
08. (M)
09. Пропавший цвет
10. (M)
11. Барабанчик-майорчик
12. (M)
13. Боже, ты моя надежда
14. (M)
15. Птица
16. (M)
17. Алая площадь
18. (M)
19. Шланг
20. (M)
21. Ах, весна
22. (M)
23. Нищие
24. (M)
25. Студентки
26. Наши
27. Железная книга метро
28. (M)
29. Великое молчание вагона метро
30. (M)
31. Бас I
32. Бас II
33. Голенький
34. Машинист
35. Палабулабу
36. Ангел (муз. Е. Казанцев)

Отчёт ЕАС:

Код:
Exact Audio Copy V0.99 prebeta 5 from 4. May 2009
EAC extraction logfile from 25. July 2011, 15:08
Звуки Му / Великое молчание вагона мeтро (стихи)
Used drive : TSSTcorpCDDVDW SH-S203B Adapter: 2 ID: 0
Read mode : Secure
Utilize accurate stream : Yes
Defeat audio cache : Yes
Make use of C2 pointers : No
Read offset correction : 6
Overread into Lead-In and Lead-Out : No
Fill up missing offset samples with silence : Yes
Delete leading and trailing silent blocks : No
Null samples used in CRC calculations : Yes
Used interface : Native Win32 interface for Win NT & 2000
Used output format : Internal WAV Routines
Sample format : 44.100 Hz; 16 Bit; Stereo
TOC of the extracted CD
Track | Start | Length | Start sector | End sector
---------------------------------------------------------
1 | 0:00.00 | 0:33.66 | 0 | 2540
2 | 0:33.66 | 0:20.27 | 2541 | 4067
3 | 0:54.18 | 0:30.54 | 4068 | 6371
4 | 1:24.72 | 2:29.30 | 6372 | 17576
5 | 3:54.27 | 0:29.24 | 17577 | 19775
6 | 4:23.51 | 3:27.09 | 19776 | 35309
7 | 7:50.60 | 0:36.21 | 35310 | 38030
8 | 8:27.06 | 0:31.63 | 38031 | 40418
9 | 8:58.69 | 0:41.15 | 40419 | 43508
10 | 9:40.09 | 0:30.27 | 43509 | 45785
11 | 10:10.36 | 1:02.39 | 45786 | 50474
12 | 11:13.00 | 0:32.33 | 50475 | 52907
13 | 11:45.33 | 0:52.42 | 52908 | 56849
14 | 12:38.00 | 0:37.24 | 56850 | 59648
15 | 13:15.24 | 1:11.48 | 59649 | 65021
16 | 14:26.72 | 0:35.21 | 65022 | 67667
17 | 15:02.18 | 0:55.57 | 67668 | 71849
18 | 15:58.00 | 0:35.42 | 71850 | 74516
19 | 16:33.42 | 3:35.48 | 74517 | 90689
20 | 20:09.15 | 0:50.18 | 90690 | 94457
21 | 20:59.33 | 0:13.21 | 94458 | 95453
22 | 21:12.54 | 0:34.30 | 95454 | 98033
23 | 21:47.09 | 1:48.39 | 98034 | 106172
24 | 23:35.48 | 0:36.63 | 106173 | 108935
25 | 24:12.36 | 1:46.33 | 108936 | 116918
26 | 25:58.69 | 3:42.00 | 116919 | 133568
27 | 29:40.69 | 1:27.06 | 133569 | 140099
28 | 31:08.00 | 2:30.00 | 140100 | 151349
29 | 33:38.00 | 1:44.63 | 151350 | 159212
30 | 35:22.63 | 5:57.39 | 159213 | 186026
31 | 41:20.27 | 2:25.72 | 186027 | 196973
32 | 43:46.24 | 2:06.15 | 196974 | 206438
33 | 45:52.39 | 1:53.21 | 206439 | 214934
34 | 47:45.60 | 2:10.42 | 214935 | 224726
35 | 49:56.27 | 1:30.48 | 224727 | 231524
36 | 51:27.00 | 1:34.36 | 231525 | 238610
Range status and errors
Selected range
Filename C:\Incoming\Звуки МУ 2003-Великое молчание вагона метро [RMG OM-15]\Звуки Му - Великое молчание вагона мeтро.wav
Peak level 100.0 %
Range quality 99.9 %
Test CRC C387FDEE
Copy CRC C387FDEE
Copy OK
No errors occurred
AccurateRip summary
Track 1 accurately ripped (confidence 1) [2F9B2862]
Track 2 accurately ripped (confidence 1) [1D6882AD]
Track 3 accurately ripped (confidence 1) [FCA7AEF7]
Track 4 accurately ripped (confidence 1) [66115CE8]
Track 5 accurately ripped (confidence 1) [8CACD6CE]
Track 6 accurately ripped (confidence 1) [2056F708]
Track 7 accurately ripped (confidence 1) [10F2B54E]
Track 8 accurately ripped (confidence 1) [7A82F2BD]
Track 9 accurately ripped (confidence 1) [929869A8]
Track 10 accurately ripped (confidence 1) [66C94B07]
Track 11 accurately ripped (confidence 1) [F82D711D]
Track 12 accurately ripped (confidence 1) [8D601168]
Track 13 accurately ripped (confidence 1) [1E974F11]
Track 14 accurately ripped (confidence 1) [CB34F5DD]
Track 15 accurately ripped (confidence 1) [1B74685F]
Track 16 accurately ripped (confidence 1) [807E45C7]
Track 17 accurately ripped (confidence 1) [43C0000D]
Track 18 accurately ripped (confidence 1) [AE0CE3C8]
Track 19 accurately ripped (confidence 1) [51A368D0]
Track 20 accurately ripped (confidence 1) [A9A6D159]
Track 21 accurately ripped (confidence 1) [42C39458]
Track 22 accurately ripped (confidence 1) [4E5A3B7B]
Track 23 accurately ripped (confidence 1) [42A25C41]
Track 24 accurately ripped (confidence 1) [1B47E741]
Track 25 accurately ripped (confidence 1) [E941ED57]
Track 26 accurately ripped (confidence 1) [A4F58692]
Track 27 accurately ripped (confidence 1) [6E5EA3C0]
Track 28 accurately ripped (confidence 1) [3C080E0B]
Track 29 accurately ripped (confidence 1) [406F4F88]
Track 30 accurately ripped (confidence 1) [38C58966]
Track 31 accurately ripped (confidence 1) [0B3B4A62]
Track 32 accurately ripped (confidence 1) [2B725059]
Track 33 accurately ripped (confidence 1) [6870BE70]
Track 34 accurately ripped (confidence 1) [B1E4E10F]
Track 35 accurately ripped (confidence 1) [2F87840A]
Track 36 accurately ripped (confidence 1) [94A5AE28]
All tracks accurately ripped
End of status report

Отчёт auCDtect Task manager:

Код:
DON'T MODIFY THIS FILE
-----------------------
PERFORMER: auCDtect Task Manager, ver. 1.6.0 RC1 build 1.6.0.1
Copyright (c) 2008-2010 y-soft. All rights reserved
http://y-soft.org
ANALYZER: auCDtect: CD records authenticity detector, version 0.8.2
Copyright (c) 2004 Oleg Berngardt. All rights reserved.
Copyright (c) 2004 Alexander Djourik. All rights reserved.
FILE: Звуки Му - Великое молчание вагона мeтро.flac
  Size: 293498360 Hash: E66E89A2C489167CC90E2A12EBC82CE8 Accuracy: -m0
  Conclusion: CDDA 100%
  Signature: BFD6BD360D67E99FA19118E4559D23D0A0B6CBAD

2003 - Зелененький

Продолжительность: 00:48:16
01. Тает снег
02. Зелененький
03. Кораблик
04. Нежное существо
05. Где мои слова?
06. Африка
07. Дядечка
08. Заяц
09. Осенняя прогулка
10. Счастливый денек

Отчёт ЕАС:

Код:
Exact Audio Copy V0.99 prebeta 5 from 4. May 2009
EAC extraction logfile from 25. July 2011, 15:47
Звуки Му / Зелененький
Used drive : TSSTcorpCDDVDW SH-S203B Adapter: 2 ID: 0
Read mode : Secure
Utilize accurate stream : Yes
Defeat audio cache : Yes
Make use of C2 pointers : No
Read offset correction : 6
Overread into Lead-In and Lead-Out : No
Fill up missing offset samples with silence : Yes
Delete leading and trailing silent blocks : No
Null samples used in CRC calculations : Yes
Used interface : Native Win32 interface for Win NT & 2000
Used output format : Internal WAV Routines
Sample format : 44.100 Hz; 16 Bit; Stereo
TOC of the extracted CD
Track | Start | Length | Start sector | End sector
---------------------------------------------------------
1 | 0:00.00 | 1:21.36 | 0 | 6110
2 | 1:21.36 | 6:49.00 | 6111 | 36785
3 | 8:10.36 | 4:02.57 | 36786 | 54992
4 | 12:13.18 | 6:28.39 | 54993 | 84131
5 | 18:41.57 | 3:08.24 | 84132 | 98255
6 | 21:50.06 | 7:49.54 | 98256 | 133484
7 | 29:39.60 | 3:58.12 | 133485 | 151346
8 | 33:37.72 | 4:44.09 | 151347 | 172655
9 | 38:22.06 | 4:37.63 | 172656 | 193493
10 | 42:59.69 | 5:16.51 | 193494 | 217244
Range status and errors
Selected range
Filename C:\Incoming\Звуки МУ 2003-Зелененький\Звуки Му - Зелененький.wav
Peak level 100.0 %
Range quality 99.9 %
Test CRC 6BB9A6D2
Copy CRC 6BB9A6D2
Copy OK
No errors occurred
AccurateRip summary
Track 1 accurately ripped (confidence 1) [514DE3D9]
Track 2 accurately ripped (confidence 1) [FC90037B]
Track 3 accurately ripped (confidence 1) [CB698C82]
Track 4 accurately ripped (confidence 1) [97D29796]
Track 5 accurately ripped (confidence 1) [4F9DB9CC]
Track 6 accurately ripped (confidence 1) [D2AAD661]
Track 7 accurately ripped (confidence 1) [6B8BCA80]
Track 8 accurately ripped (confidence 1) [7DBF35A8]
Track 9 accurately ripped (confidence 1) [61DC9F09]
Track 10 accurately ripped (confidence 1) [BDF6274B]
All tracks accurately ripped
End of status report

Отчёт auCDtect Task manager:

Код:
DON'T MODIFY THIS FILE
-----------------------
PERFORMER: auCDtect Task Manager, ver. 1.6.0 RC1 build 1.6.0.1
Copyright (c) 2008-2010 y-soft. All rights reserved
http://y-soft.org
ANALYZER: auCDtect: CD records authenticity detector, version 0.8.2
Copyright (c) 2004 Oleg Berngardt. All rights reserved.
Copyright (c) 2004 Alexander Djourik. All rights reserved.
FILE: Звуки Му - Великое молчание вагона мeтро.flac
  Size: 293498360 Hash: E66E89A2C489167CC90E2A12EBC82CE8 Accuracy: -m0
  Conclusion: CDDA 100%
  Signature: BFD6BD360D67E99FA19118E4559D23D0A0B6CBAD

2003 - Мыши 2002

Продолжительность: 00:50:35
01. Вайоминг
02. Спишь, не спишь...
03. Слон
04. На второй берёзе
05. Метет
06. Shake
07. Про Снег
08. Моя Любовь
09. Now Or Never

Отчёт ЕАС:

Код:
Exact Audio Copy V0.99 prebeta 5 from 4. May 2009
EAC extraction logfile from 26. July 2011, 9:22
Звуки Му / Мыши 2002
Used drive : TSSTcorpCDDVDW SH-S203B Adapter: 2 ID: 0
Read mode : Secure
Utilize accurate stream : Yes
Defeat audio cache : Yes
Make use of C2 pointers : No
Read offset correction : 6
Overread into Lead-In and Lead-Out : No
Fill up missing offset samples with silence : Yes
Delete leading and trailing silent blocks : No
Null samples used in CRC calculations : Yes
Used interface : Native Win32 interface for Win NT & 2000
Used output format : Internal WAV Routines
Sample format : 44.100 Hz; 16 Bit; Stereo
TOC of the extracted CD
Track | Start | Length | Start sector | End sector
---------------------------------------------------------
1 | 0:00.00 | 3:38.46 | 0 | 16395
2 | 3:38.46 | 3:04.22 | 16396 | 30217
3 | 6:42.68 | 4:33.36 | 30218 | 50728
4 | 11:16.29 | 6:09.51 | 50729 | 78454
5 | 17:26.05 | 4:50.26 | 78455 | 100230
6 | 22:16.31 | 4:47.37 | 100231 | 121792
7 | 27:03.68 | 7:35.56 | 121793 | 155973
8 | 34:39.49 | 11:48.02 | 155974 | 209075
9 | 46:27.51 | 4:08.11 | 209076 | 227686
Range status and errors
Selected range
Filename C:\Incoming\Звуки Му 2003-Мыши 2002 [RMG OM-14]\Звуки Му - Мыши 2002.wav
Peak level 100.0 %
Range quality 100.0 %
Test CRC E2ED0B66
Copy CRC E2ED0B66
Copy OK
No errors occurred
AccurateRip summary
Track 1 accurately ripped (confidence 1) [FF5AEF2D]
Track 2 accurately ripped (confidence 1) [BFBAFA8E]
Track 3 accurately ripped (confidence 1) [BBF505D3]
Track 4 accurately ripped (confidence 1) [B9A3580E]
Track 5 accurately ripped (confidence 1) [468BBA38]
Track 6 accurately ripped (confidence 1) [C8D454F2]
Track 7 accurately ripped (confidence 1) [C589058E]
Track 8 accurately ripped (confidence 1) [96964925]
Track 9 accurately ripped (confidence 1) [4C7DC741]
All tracks accurately ripped
End of status report

Отчёт auCDtect Task manager:

Код:
DON'T MODIFY THIS FILE
-----------------------
PERFORMER: auCDtect Task Manager, ver. 1.6.0 RC1 build 1.6.0.1
Copyright (c) 2008-2010 y-soft. All rights reserved
http://y-soft.org
ANALYZER: auCDtect: CD records authenticity detector, version 0.8.2
Copyright (c) 2004 Oleg Berngardt. All rights reserved.
Copyright (c) 2004 Alexander Djourik. All rights reserved.
FILE: Звуки Му - Мыши 2002.flac
  Size: 217579179 Hash: F13C6345D2C90D69810292A7FFA4AC09 Accuracy: -m0
  Conclusion: CDDA 99%
  Signature: 972CCD6B6D133A20913049F115DD605766CEC8CA

2005 - Сказки братьев Гримм

Продолжительность: 00:53:33
01. Мальчик-с-пальчик
02. Разбойник и его сыновья
03. Золушка
04. Храбрый портняжка
05. Подземный человечек
06. Король-лягушонок, или Железный Гейнрих
07. Старый Кринкранк
08. Ганс мой ёж

Отчёт ЕАС:

Код:
EAC extraction logfile from 4. November 2005, 16:39 for CD
Звуки Му / Сказки братьев Гримм
Used drive  : _NEC    DVD_RW ND-2510A   Adapter: 1  ID: 2
Read mode   : Secure with NO C2, accurate stream, disable cache
Read offset correction : 48
Overread into Lead-In and Lead-Out : No
Used output format : C:\WINDOWS\system32\cmd.exe   (User Defined Encoder)
                     320 kBit/s
                     Additional command line options : /u /c ""S:\Multimedia\Soundz Good\Exact Audio Copy\Scripts\eac-enc.cmd" %o %s %d "%a" "%g" %hHIGH%h %lLOW%l %y "%m""
Other options      :
    Fill up missing offset samples with silence : Yes
    Delete leading and trailing silent blocks : No
    Native Win32 interface for Win NT & 2000
Range status and errors
Selected range
     Filename M:\- - M i s c - -\Звуки Му — Сказки братьев Гримм [2005] [EAC+WavPack, CUE+LOG inside by djet].wv.wav
     Peak level 33.3 %
     Range quality 100.0 %
     CRC 3F920A7D
     Copy OK
No errors occured

Отчёт auCDtect Task manager:

Код:
DON'T MODIFY THIS FILE
-----------------------
PERFORMER: auCDtect Task Manager, ver. 1.6.0 RC1 build 1.6.0.1
Copyright (c) 2008-2010 y-soft. All rights reserved
http://y-soft.org
ANALYZER: auCDtect: CD records authenticity detector, version 0.8.2
Copyright (c) 2004 Oleg Berngardt. All rights reserved.
Copyright (c) 2004 Alexander Djourik. All rights reserved.
FILE: Звуки Му - Сказки братьев Гримм.flac
  Size: 223927784 Hash: 2EFF1CF888250E2440D4C9A0F0E0686C Accuracy: -m0
  Conclusion: CDDA 100%
  Signature: F376493B98BBC83BE07279F3B2640190FBC6B613
Время раздачи: С 8:00 до 21:00 иногда 24/7
Other forum [Profile] [PM]

Dracula

Longevity: 7 years 1 month

Posts: 11381

Торрент-статистика

Post 29-May-2013 05:43 (after 5 hours)

Топик был перенесен из форума Rock в форум Russian Rock


p2000s
 
Display posts from previous:    
Reply to topic

The time now is: Today 01:30

All times are GMT + 3 Hours



You cannot post new topics in this forum
You cannot reply to topics in this forum
You cannot edit your posts in this forum
You cannot delete your posts in this forum
You cannot vote in polls in this forum
You cannot attach files in this forum
You cannot download files in this forum