Сегодня идет свободное скачивание без начисления Download

Не оглядываясь назад / No Looking Back (Эдвард Бёрнс) (Драма, Мелодрама, Комедия, 1998) DVDRip

Ответить на тему
 
Автор
Сообщение

Omen ®

Стаж: 4 года 1 месяц

Сообщений: 194359

Торрент-статистика

Пост 29-Май-2013 11:13

[Цитировать]

Не оглядываясь назад / No Looking Back -«How can you not fit in... in your own hometown?»- Русское название: Не оглядываясь назад
Оригинальное название: No Looking Back
Производство: США, Good Machine, Marlboro Road Gang Productions, PolyGram Filmed Entertainment, South Fork Pictures
Год выпуска: 1998
Жанр: Драма, Мелодрама, Комедия
Описание фильма:
Холодная серая зима в небольшом рабочем городке на берегу океана. Ничто не меняется здесь, и каждый день похож на предыдущий. Клодия работает в местном ресторанчике. Она живет с Майком, человеком, которого она знает всю жизнь и им хорошо вместе. После работы они ходят в бар, встречаются с друзьями. Верные друзья, неплохая работа, привычная жизнь, стабильность во всем.
Но все меняется с появлением Чарли — единственного мечтателя и романтика в этом городе. Много лет назад он сумел завоевать ее любовь, а потом исчез, не сказав ни слова. И вот, уже казалось забытое чувство, вспыхивает вновь, и Клодия должна сделать выбор между мнимой стабильностью и призрачной мечтой...
Режиссер: Эдвард Бёрнс
Актеры: Лорен Холли, Эдвард Бёрнс, Джон Бон Джови, Кевин Хеффернан, Марк Шульте, Кэтлин Дойл, Дженнифер Эспозито, Ник Сэндоу, Уэлкер Уайт, Эллен МакЭлдафф.
Продолжительность: 01:36:28
Перевод: Двуголосый закадровый
Автор перевода: Lazer Video

Дата мировой премьеры: 27.03.1998
Качество видео: DVDRip
Видео: 720x400 (1.80:1), 23.976 fps, XviD build 50 ~883 kbps avg, 0.13 bit/pixel
Аудио 1: 48 kHz, AC3 Dolby Digital, 2/0 (L,R) ch, ~192 kbps - русский
Аудио 2: 48 kHz, MPEG Layer 3, 2 ch, ~128.00 kbps avg - английский

MediaInfo

General
Complete name : D:\Public\No.Looking.Back.1998.DVDRip.XviD.avi
Format : AVI
Format/Info : Audio Video Interleave
File size : 841 MiB
Duration : 1h 36mn
Overall bit rate : 1 219 Kbps
Writing application : VirtualDubMod 1.5.10.2 (build 2542/release)
Writing library : VirtualDubMod build 2542/release
Video
ID : 0
Format : MPEG-4 Visual
Format profile : Advanced [email protected]
Format settings, BVOP : 1
Format settings, QPel : No
Format settings, GMC : No warppoints
Format settings, Matrix : Custom
Codec ID : XVID
Codec ID/Hint : XviD
Duration : 1h 36mn
Bit rate : 885 Kbps
Width : 720 pixels
Height : 400 pixels
Display aspect ratio : 16:9
Frame rate : 23.976 fps
Color space : YUV
Chroma subsampling : 4:2:0
Bit depth : 8 bits
Scan type : Progressive
Compression mode : Lossy
Bits/(Pixel*Frame) : 0.128
Stream size : 610 MiB (73%)
Writing library : XviD 1.2.1 (UTC 2008-12-04)
Audio #1
ID : 1
Format : AC-3
Format/Info : Audio Coding 3
Mode extension : CM (complete main)
Codec ID : 2000
Duration : 1h 36mn
Bit rate mode : Constant
Bit rate : 192 Kbps
Channel(s) : 2 channels
Channel positions : Front: L R
Sampling rate : 48.0 KHz
Bit depth : 16 bits
Compression mode : Lossy
Stream size : 132 MiB (16%)
Alignment : Split accross interleaves
Interleave, duration : 42 ms (1.00 video frame)
Interleave, preload duration : 500 ms
Audio #2
ID : 2
Format : MPEG Audio
Format version : Version 1
Format profile : Layer 3
Mode : Joint stereo
Mode extension : MS Stereo
Codec ID : 55
Codec ID/Hint : MP3
Duration : 1h 36mn
Bit rate mode : Constant
Bit rate : 128 Kbps
Channel(s) : 2 channels
Sampling rate : 48.0 KHz
Compression mode : Lossy
Stream size : 88.3 MiB (11%)
Alignment : Aligned on interleaves
Interleave, duration : 42 ms (1.00 video frame)
Interleave, preload duration : 504 ms
Writing library : LAME3.98r
Encoding settings : -m j -V 4 -q 2 -lowpass 17 -b 128
Скриншоты:
         
Вне форума [Профиль] [ЛС]
Показать сообщения:    
Ответить на тему

Текущее время: Сегодня 10:54

Часовой пояс: GMT + 3



Вы не можете начинать темы
Вы не можете отвечать на сообщения
Вы не можете редактировать свои сообщения
Вы не можете удалять свои сообщения
Вы не можете голосовать в опросах
Вы не можете прикреплять файлы к сообщениям
Вы не можете скачивать файлы