Сегодня идет свободное скачивание без начисления Download

Докторша и полковник / La dottoressa ci sta col colonnello (Мишель Массимо Тарантини) (Комедия, 1980) DVDRip [H.264]

Ответить на тему
 
Автор
Сообщение

Omen ®

Стаж: 4 года 1 месяц

Сообщений: 194382

Торрент-статистика

Пост 29-Май-2013 11:17

[Цитировать]

Докторша и полковник
La dottoressa ci sta col colonnello
- Русское название: Докторша и полковник
Оригинальное название: La dottoressa ci sta col colonnello
Год выпуска: 1980
Жанр: Комедия
Страна: Италия
Производство: Dania Film, Nuova Dania Cinematografica
Описание фильма:
Один полковник, не отличающийся мужественностью, позволяет убедить себя симпатичной докторше, которая безумно влюблена в него, подвергнуться деликатной операции, чтобы решить волнующую его проблему. Но в результате операции получилось не то, на что надеялся офицер.
Режиссер: Мишель Массимо Тарантини
Сценарий: Мишель Массимо Тарантини, Francesco Milizia
Актеры: Надя Кассини, Лино Банфи, Альваро Витали, Мализа Лонго, Бруно Миннити, Лучио Монтанаро, Энцо Андронико, Дино Кассио, Томас Руди, Лучиано Амодио
Продолжительность: 01:26:51
Перевод: Одноголосый закадровый

Дата мировой премьеры: 19 декабря 1980
Видеокодек: MPEG-4 AVC/H.264
Битрейт видео: ~2200 Кбит/сек
Размер кадра: 720x384
Качество видео: DVDRip
Аудиокодек: AC3 2.0
Битрейт аудио: 192 kbps

MediaInfo:

General
Unique ID : 213209834216011033655968694226749005323 (0xA066B86D25897C6394E91CA777D49E0B)
Complete name : H:\Downloads\Докторша и полковник.mkv
Format : Matroska
Format version : Version 4 / Version 2
File size : 1.45 GiB
Duration : 1h 26mn
Overall bit rate : 2 394 Kbps
Encoded date : UTC 2013-05-26 10:36:46
Writing application : mkvmerge v6.0.0 ('Coming Up For Air') built on Jan 20 2013 09:52:00
Writing library : libebml v1.3.0 + libmatroska v1.4.0
Video
ID : 1
Format : AVC
Format/Info : Advanced Video Codec
Format profile : [url=mailto:[email protected]][email protected][/url]
Format settings, CABAC : Yes
Format settings, ReFrames : 8 frames
Codec ID : V_MPEG4/ISO/AVC
Duration : 1h 26mn
Bit rate : 2 200 Kbps
Width : 720 pixels
Height : 384 pixels
Display aspect ratio : 1.85:1
Frame rate mode : Constant
Frame rate : 25.000 fps
Color space : YUV
Chroma subsampling : 4:2:0
Bit depth : 8 bits
Scan type : Progressive
Bits/(Pixel*Frame) : 0.318
Stream size : 1.31 GiB (90%)
Title : La dottoressa ci sta col colonnello
Writing library : x264 core 125 r2208 d9d2288
Encoding settings : cabac=1 / ref=8 / deblock=1:-1:-1 / analyse=0x3:0x133 / me=umh / subme=9 / psy=1 / psy_rd=1.00:0.10 / mixed_ref=1 / me_range=32 / chroma_me=1 / trellis=2 / 8x8dct=1 / cqm=0 / deadzone=21,11 / fast_pskip=0 / chroma_qp_offset=-3 / threads=6 / lookahead_threads=1 / sliced_threads=0 / nr=0 / decimate=1 / interlaced=0 / bluray_compat=0 / constrained_intra=0 / bframes=3 / b_pyramid=2 / b_adapt=2 / b_bias=0 / direct=3 / weightb=1 / open_gop=0 / weightp=2 / keyint=250 / keyint_min=25 / scenecut=40 / intra_refresh=0 / rc_lookahead=60 / rc=2pass / mbtree=1 / bitrate=2200 / ratetol=1.0 / qcomp=0.60 / qpmin=10 / qpmax=51 / qpstep=4 / cplxblur=20.0 / qblur=0.5 / ip_ratio=1.40 / aq=1:1.00
Language : Italian
Default : Yes
Forced : No
Audio
ID : 2
Format : AC-3
Format/Info : Audio Coding 3
Mode extension : CM (complete main)
Format settings, Endianness : Big
Codec ID : A_AC3
Duration : 1h 26mn
Bit rate mode : Constant
Bit rate : 192 Kbps
Channel(s) : 2 channels
Channel positions : Front: L R
Sampling rate : 48.0 KHz
Bit depth : 16 bits
Compression mode : Lossy
Stream size : 119 MiB (8%)
Title : Одноголосый
Language : Russian
Default : Yes
Forced : No
Скриншоты:                    
Вне форума [Профиль] [ЛС]
Показать сообщения:    
Ответить на тему

Текущее время: Сегодня 17:36

Часовой пояс: GMT + 3



Вы не можете начинать темы
Вы не можете отвечать на сообщения
Вы не можете редактировать свои сообщения
Вы не можете удалять свои сообщения
Вы не можете голосовать в опросах
Вы не можете прикреплять файлы к сообщениям
Вы не можете скачивать файлы