Сегодня идет свободное скачивание без начисления Download

Елена и мужчины / Elena et les hommes (Жан Ренуар) (Мелодрама, Комедия, 1956) BDRip [H.264]

Ответить на тему
 
Автор
Сообщение

Omen ®

Стаж: 4 года 1 месяц

Сообщений: 194394

Торрент-статистика

Пост 29-Май-2013 11:26

[Цитировать]

Елена и мужчины
Elena et les hommes
-«The Only Thing Gayer Than April in Paris is Bergman in Paris!»- Русское название: Елена и мужчины
Оригинальное название: Elena et les hommes
Год выпуска: 1956
Жанр: Мелодрама, Комедия
Страна: Италия, Франция
Производство: Electra Compagnia Cinematografica, Franco London Films, Les Films Gibе
Описание фильма:
Париж, начало XX века. Очаровательная польская княгиня Елена Сокоровская держит в своих руках судьбы Европы. Один из наиболее влиятельных французских генералов влюблен в неё и прожженные политики надеются, что смогут с её помощью заставить генерала совершить государственный переворот.
Елена же влюблена в Анри де Шевинкура, циничного молодого человека, который, зная о её влиянии на генерала, предает свои чувства в угоду политическим амбициям. Елена, поначалу уверенная в своей способности управлять судьбами даже самых сильных мужчин, признает, что любовь сильнее её амбиций.
Режиссер: Жан Ренуар
Сценарий: Жан Ренуар, Жан Серж
Продюсер: Луи Випф
Актеры: Ингрид Бергман, Жан Маре, Мел Феррер, Жан Ришар, Жюльет Греко, Пьер Бертен, Дора Долл, Фридерик Дюваллес, Рено Мэри, Жак Морель
Продолжительность: 01:38:23
Перевод: Многоголосый закадровый (SomeWax)
Субтитры: Отсутствуют

Дата мировой премьеры: 12 сентября 1956
Видеокодек: MPEG-4 AVC/H.264
Битрейт видео: ~2500 Кбит/сек
Размер кадра: 1024x768
Качество видео: BDRip
Аудиокодек: AC3 2.0
Битрейт аудио: 192 kbps

MediaInfo:

General
Unique ID : 214901364393016002724781431762040426983 (0xA1AC7F4D92A8633599F09AAC7CB091E7)
Complete name : H:\Downloads\Елена и мужчины.mkv
Format : Matroska
Format version : Version 4 / Version 2
File size : 1.85 GiB
Duration : 1h 38mn
Overall bit rate : 2 694 Kbps
Encoded date : UTC 2013-05-26 05:46:33
Writing application : mkvmerge v6.0.0 ('Coming Up For Air') built on Jan 20 2013 09:52:00
Writing library : libebml v1.3.0 + libmatroska v1.4.0
Video
ID : 1
Format : AVC
Format/Info : Advanced Video Codec
Format profile : [url=mailto:[email protected]][email protected][/url]
Format settings, CABAC : Yes
Format settings, ReFrames : 8 frames
Codec ID : V_MPEG4/ISO/AVC
Duration : 1h 38mn
Bit rate : 2 500 Kbps
Width : 1 024 pixels
Height : 768 pixels
Display aspect ratio : 4:3
Frame rate mode : Constant
Frame rate : 24.000 fps
Color space : YUV
Chroma subsampling : 4:2:0
Bit depth : 8 bits
Scan type : Progressive
Bits/(Pixel*Frame) : 0.132
Stream size : 1.68 GiB (91%)
Title : Elena et les hommes
Writing library : x264 core 125 r2208 d9d2288
Encoding settings : cabac=1 / ref=8 / deblock=1:-1:-1 / analyse=0x3:0x133 / me=umh / subme=9 / psy=1 / psy_rd=1.00:0.10 / mixed_ref=1 / me_range=32 / chroma_me=1 / trellis=2 / 8x8dct=1 / cqm=0 / deadzone=21,11 / fast_pskip=0 / chroma_qp_offset=-3 / threads=6 / lookahead_threads=1 / sliced_threads=0 / nr=0 / decimate=1 / interlaced=0 / bluray_compat=0 / constrained_intra=0 / bframes=3 / b_pyramid=2 / b_adapt=2 / b_bias=0 / direct=3 / weightb=1 / open_gop=0 / weightp=2 / keyint=250 / keyint_min=25 / scenecut=40 / intra_refresh=0 / rc_lookahead=60 / rc=2pass / mbtree=1 / bitrate=2500 / ratetol=1.0 / qcomp=0.60 / qpmin=10 / qpmax=51 / qpstep=4 / cplxblur=20.0 / qblur=0.5 / ip_ratio=1.40 / aq=1:1.00
Language : French
Default : Yes
Forced : No
Audio
ID : 2
Format : AC-3
Format/Info : Audio Coding 3
Mode extension : CM (complete main)
Format settings, Endianness : Big
Codec ID : A_AC3
Duration : 1h 38mn
Bit rate mode : Constant
Bit rate : 192 Kbps
Channel(s) : 2 channels
Channel positions : Front: L R
Sampling rate : 48.0 KHz
Bit depth : 16 bits
Compression mode : Lossy
Stream size : 135 MiB (7%)
Title : Многоголосый закадровый - SomeWax
Language : Russian
Default : Yes
Forced : No
Скриншоты:                
Вне форума [Профиль] [ЛС]
Похожие темы
Форум Тема Автор Торрент Отв. Посл. сообщение
./templates/default/images/folder_dl.gif Разное Елена Грушко, Юрий Медведев - Словарь русских суеверий [1995] [PDF] Omen
1 | 0

0 | 1033

13

2012-04-20 16:50
Omen Последнее
./templates/default/images/folder_dl.gif Приключения, детектив, боевик, триллер Кристи Агата - Одним пальцем (Указующий перст) [Лебедева Елена, 2011, 96 kbps, MP3] Omen
1 | 0

0 | 545

10

2012-11-05 02:16
Omen Последнее
./templates/default/images/folder_dl.gif Техническая и научно-популярная литература О.Б. Антонов - Зеленая энергетика Казахстана в 21 веке: мифы, реальность и перспективы [2014, PDF] OlegAlm
1 | 0

0 | 1149

1

2014-01-16 07:41
OlegAlm Последнее
./templates/default/images/folder_dl.gif Обучающее видео [Елена Жукова] Дизайн и оформление интерьера - 2DVD [2011, RUS, ММ] Omen
0 | 1

0 | 196

4

2015-09-02 09:03
Omen Последнее
./templates/default/images/folder_dl.gif Фантастика, фэнтези, ужасы, мистика Елена Кароль | Совушка ее величества (2016) [FB2] moralis
1 | 0

0 | 439

3

2016-01-27 12:15
moralis Последнее
./templates/default/images/folder_dl.gif Философия, Религия, Эзотерика, Публицистика Елена Ларина, Владимир Овчинский | Кибервойны ХХI века. О чем умолчал Эдвард Сноуден (2014) [PDF, FB2, DOCX] moralis
0 | 1

0 | 269

2

2016-02-02 18:59
moralis Последнее
./templates/default/images/folder_dl.gif Медицина и Здоровье Елена Романова | 120/80. Как привести давление в норму без таблеток (2014) [FB2] XP1971
1 | 0

0 | 397

11

2016-07-21 01:08
XP1971 Последнее
./templates/default/images/folder_dl.gif Медицина и Здоровье Елена Малышева | Диета Елены Малышевой (2016) [PDF] XP1971
1 | 0

0 | 232

6

2016-07-29 15:45
XP1971 Последнее
Показать сообщения:    
Ответить на тему

Текущее время: Сегодня 16:42

Часовой пояс: GMT + 3



Вы не можете начинать темы
Вы не можете отвечать на сообщения
Вы не можете редактировать свои сообщения
Вы не можете удалять свои сообщения
Вы не можете голосовать в опросах
Вы не можете прикреплять файлы к сообщениям
Вы не можете скачивать файлы