Сегодня идет свободное скачивание без начисления Download

Жандармы: Коллекция / Le Gendarme: Collection (Жан Жиро, Тони Абоянц) (Комедия, Фантастика, Криминал, 1964-1982) [H.264] BDRip

Ответить на тему
 
Автор
Сообщение

Omen ®

Стаж: 4 года 1 месяц

Сообщений: 194382

Торрент-статистика

Пост 29-Май-2013 13:10

[Цитировать]

Жандармы: Коллекция
Le Gendarme: Collection
- Русское название: Жандармы: Коллекция
Оригинальное название: Le Gendarme: Collection
Год выпуска: 1964-1982
Жанр: Комедия, Фантастика, Криминал
Описание фильма:
Веселые приключения жандарма из Сен-Тропе. Об этих фильмах можно говорить бесконечно. Серии о жандарме занимают достойное место во французском комедийном кинематографе. Потрясающий искрометный юмор и игра Луи де Фюнеса завораживает...
Режиссер: Жан Жиро, Тони Абоянц
Актеры: Луи де Фюнес, Женевьева Гра, Мишель Галабрю, Кристиан Марин, Морис Риш, Дэниэл Кочи, Ги Гроссо, Мишель Модо, Жан-Пьер Рамбаль, Николь Вервил, Мадлен Делавевре, Мария Паком, Ив Винсент, Клод Пьеплю, Алан Скотт, Франция Румилли, Габриэле Тинти, Мишель Варнье, Жан Лефевр, Марино Мазе, Марио Пизу, Маурицио Бонулья, Марио Давид, Клод Жансак, Патрик Прежан, Жан-Роже Коссимон, Жак Франсуа, Катрин Серр, Жан-Пьерр Бертран, Альбер Ожье, Гай Верда, Сара Франкетти, Уго Фангареджи, Софи Мико, Элизабет Этьен
Страна: Франция, Италия, SNC, Franca Films, Compagnia Cinematografica Champion, Medusa Produzione, T.C. Productions, Mega Film
Продолжительность: 01:39:13 | 01:41:48 | 01:29:18 | 01:40:21 | 01:31:38 | 01:38:43
Перевод: Профессиональный многоголосый, дублированный
Видеокодек: MPEG-4 AVC/H.264
Качество: BDRip (AVC)
Видео: 1024x436, 996x576, 3500 Кбит/с, 24fps
Звук: Русский, украинский, французский (AC3, 2 ch, 192 Кбит/с)
Субтитры: Русские, французские, английские
-

Жaндарм из Сен-Тропе / Le gendarme de Saint-Tropez (1964)

Жaндарм из Сен-Тропе / Le gendarme de Saint-Tropez (1964) BDRip - «Бравый жандарм Крюшо в Сан-Тропе » - Русское название: Жандарм из Сен-Тропе
Оригинальное название: Le gendarme de Saint-Tropez
Страна: Франция Италия
Год выпуска: 1964
Жанр: Самая веселая комедия
Описание фильма:
Получив повышение, в уютный курортный городок Сен-Тропе приезжает бравый жандарм Крюшо с красоткой-дочерью Николь. Добрые, но недотепистые местные жандармы с радостью принимают Крюшо в свой круг. Но их радость быстро проходит: не такой добряк, но еще более придурковатый Крюшо с рвением бросается на защиту закона даже тогда, когда закон в его защите не нуждается.
С приездом в Сен-Тропе жандарма Крюшо «мирная» жизнь городка заканчивается: охота на нудистов, поиски украденной из музея бесценной картины, поимка банды опасных преступников — бестолковому жандарму всегда найдется занятие. Да и за легкомысленной Николь нужен глаз да глаз…
Режиссер: Жан Жиро
Актеры: Луи де Фюнес, Женевьев Гра, Мишель Галабрю, Даниэль Коши, Мария Паком, Клод Пьеплю, Франс Румилли, Габриэль Тинти, Мишель Варнье
Продолжительность: 01:39:13
Перевод: Многоголосый закадровый, Двухголосый закадровый, Одноголосый закадровый
Субтитры: Русские, Французские, Английские

Рейтинг MPAA: G – нет возрастных ограничений!!!
Дата мировой премьеры: 9 сентября 1964
Видеокодек: MPEG-4 AVC
Битрейт видео: ~3500 Кбит/сек
Размер кадра: 1024x436
Качество видео: BDRip
Аудио:
Russian Dolby Digital 2.0 (НТВ+) , 192 Кбит/сек, 2 канала
Russian Dolby Digital 2.0 (РенТВ) , 192 Кбит/сек, 2 канала
Russian Dolby Digital 2.0 (Останкино) , 192 Кбит/сек, 2 канала
Russian Dolby Digital 2.0 (ОРТ) , 192 Кбит/сек, 2 канала
Russian Dolby Digital 2.0 (SomeWax) , 192 Кбит/сек, 2 канала
Ukrainian Dolby Digital 2.0 (НТН) , 192 Кбит/сек, 2 канала
French Dolby Digital 2.0 , 192 Кбит/сек, 2 канала

Знаете ли вы, что...

• После выхода фильма город Сан-Тропе стал невероятно популярен у туристов.
• Легенда о появлении фильма: однажды Жан Жиро отдыхал на пляже в Сан-Тропе, во время купания у него украли кинокамеру. Когда Жиро пришёл в жандармерию, то там ему заявили, что подобными вещами не занимаются. Тогда Жан Жиро и решил снять фильм, высмеивающий жандармов из Сен-Тропе.
• После знакомства, во время пикника на природе, жандармы играют в петанк — популярную французскую игру.
• Сцена с Фугассом «Охота за нудистами» позже была использована в фильме «Жандарм на прогулке».
• Фрагмент с нудистами из фильма, чей перевод неопознан, был использован в выпуске программы «Тема» с Владом Листьевым «Натуризм», показанный 8 сентября 1992 года.

MediaInfo

Общее
Уникальный идентификатор : 239486094248698090885458718782763185378 (0xB42B58118CCA34738E8F10C89D5A34E2)
Полное имя : G:\MPEG4\Zhandarmy.Kollekcija.1964-1982.x264.BDRip.(AVC)\1.Zhandarm.iz.Sen-Trope.1964.x264.BDRip.(AVC).mkv
Формат : Matroska
Версия формата : Version 2
Размер файла : 3,36 Гбайт
Продолжительность : 1 ч. 39 м.
Общий поток : 4847 Кбит/сек
Название фильма : Le Gendarme de St. Tropez (1964) - fanatus
Дата кодирования : UTC 2012-10-21 17:00:11
Программа кодирования : mkvmerge v3.4.0 ('Rapunzel') сборка от May 15 2010 09:38:20
Библиотека кодирования : libebml v0.8.0 + libmatroska v0.9.0
Видео
Идентификатор : 1
Формат : AVC
Формат/Информация : Advanced Video Codec
Профиль формата : [url=mailto:[email protected]][email protected][/url]
Параметр CABAC формата : Да
Параметр ReFrames формата : 10 кадров
Идентификатор кодека : V_MPEG4/ISO/AVC
Продолжительность : 1 ч. 39 м.
Битрейт : 3500 Кбит/сек
Ширина : 1024 пикселя
Высота : 436 пикселей
Соотношение сторон : 2,35:1
Режим частоты кадров : Постоянный
Частота кадров : 24,000 кадра/сек
Цветовое пространство : YUV
Субдискретизация насыщенности : 4:2:0
Битовая глубина : 8 бит
Тип развёртки : Прогрессивная
Бит/(Пиксели*Кадры) : 0.327
Размер потока : 2,36 Гбайт (70%)
Заголовок : Le Gendarme de St. Tropez (1964)
Библиотека кодирования : x264 core 128 r2216 198a7ea
Настройки программы : cabac=1 / ref=10 / deblock=1:-2:-2 / analyse=0x3:0x113 / me=umh / subme=11 / psy=1 / psy_rd=1.00:0.10 / mixed_ref=1 / me_range=48 / chroma_me=1 / trellis=2 / 8x8dct=1 / cqm=0 / deadzone=21,11 / fast_pskip=0 / chroma_qp_offset=-3 / threads=16 / lookahead_threads=2 / sliced_threads=0 / nr=0 / decimate=0 / interlaced=0 / bluray_compat=0 / constrained_intra=0 / bframes=12 / b_pyramid=2 / b_adapt=2 / b_bias=0 / direct=3 / weightb=1 / open_gop=0 / weightp=2 / keyint=240 / keyint_min=24 / scenecut=40 / intra_refresh=0 / rc_lookahead=40 / rc=2pass / mbtree=0 / bitrate=3500 / ratetol=1.0 / qcomp=0.60 / qpmin=0 / qpmax=69 / qpstep=3 / cplxblur=20.0 / qblur=0.5 / vbv_maxrate=50000 / vbv_bufsize=62500 / nal_hrd=none / ip_ratio=1.40 / pb_ratio=1.30 / aq=1:0.80
Язык : French
Default : Да
Forced : Нет
Коэффициенты матрицы : BT.709
Аудио #1
Идентификатор : 2
Формат : AC-3
Формат/Информация : Audio Coding 3
Профиль формата : Dolby Digital
Расширение режима : CM (complete main)
Параметр Endianness формата : Big
Идентификатор кодека : A_AC3
Продолжительность : 1 ч. 39 м.
Вид битрейта : Постоянный
Битрейт : 192 Кбит/сек
Каналы : 2 канала
Расположение каналов : Front: L R
Частота : 48,0 КГц
Битовая глубина : 16 бит
Метод сжатия : С потерями
Размер потока : 136 Мбайт (4%)
Заголовок : NTV+
Язык : Russian
Default : Да
Forced : Да
Аудио #2
Идентификатор : 3
Формат : AC-3
Формат/Информация : Audio Coding 3
Профиль формата : Dolby Digital
Расширение режима : CM (complete main)
Параметр Endianness формата : Big
Идентификатор кодека : A_AC3
Продолжительность : 1 ч. 39 м.
Вид битрейта : Постоянный
Битрейт : 192 Кбит/сек
Каналы : 2 канала
Расположение каналов : Front: L R
Частота : 48,0 КГц
Битовая глубина : 16 бит
Метод сжатия : С потерями
Размер потока : 136 Мбайт (4%)
Заголовок : RenTV
Язык : Russian
Default : Нет
Forced : Нет
Аудио #3
Идентификатор : 4
Формат : AC-3
Формат/Информация : Audio Coding 3
Профиль формата : Dolby Digital
Расширение режима : CM (complete main)
Параметр Endianness формата : Big
Идентификатор кодека : A_AC3
Продолжительность : 1 ч. 39 м.
Вид битрейта : Постоянный
Битрейт : 192 Кбит/сек
Каналы : 2 канала
Расположение каналов : Front: L R
Частота : 48,0 КГц
Битовая глубина : 16 бит
Метод сжатия : С потерями
Размер потока : 136 Мбайт (4%)
Заголовок : Ostankino
Язык : Russian
Default : Нет
Forced : Нет
Аудио #4
Идентификатор : 5
Формат : AC-3
Формат/Информация : Audio Coding 3
Профиль формата : Dolby Digital
Расширение режима : CM (complete main)
Параметр Endianness формата : Big
Идентификатор кодека : A_AC3
Продолжительность : 1 ч. 39 м.
Вид битрейта : Постоянный
Битрейт : 192 Кбит/сек
Каналы : 2 канала
Расположение каналов : Front: L R
Частота : 48,0 КГц
Битовая глубина : 16 бит
Метод сжатия : С потерями
Размер потока : 136 Мбайт (4%)
Заголовок : ORT
Язык : Russian
Default : Нет
Forced : Нет
Аудио #5
Идентификатор : 6
Формат : AC-3
Формат/Информация : Audio Coding 3
Профиль формата : Dolby Digital
Расширение режима : CM (complete main)
Параметр Endianness формата : Big
Идентификатор кодека : A_AC3
Продолжительность : 1 ч. 39 м.
Вид битрейта : Постоянный
Битрейт : 192 Кбит/сек
Каналы : 2 канала
Расположение каналов : Front: L R
Частота : 48,0 КГц
Битовая глубина : 16 бит
Метод сжатия : С потерями
Размер потока : 136 Мбайт (4%)
Заголовок : SomeWax
Язык : Russian
Default : Нет
Forced : Нет
Аудио #6
Идентификатор : 7
Формат : AC-3
Формат/Информация : Audio Coding 3
Профиль формата : Dolby Digital
Расширение режима : CM (complete main)
Параметр Endianness формата : Big
Идентификатор кодека : A_AC3
Продолжительность : 1 ч. 39 м.
Вид битрейта : Постоянный
Битрейт : 192 Кбит/сек
Каналы : 2 канала
Расположение каналов : Front: L R
Частота : 48,0 КГц
Битовая глубина : 16 бит
Метод сжатия : С потерями
Размер потока : 136 Мбайт (4%)
Заголовок : NTN
Язык : Ukrainian
Default : Нет
Forced : Нет
Аудио #7
Идентификатор : 8
Формат : AC-3
Формат/Информация : Audio Coding 3
Профиль формата : Dolby Digital
Расширение режима : CM (complete main)
Параметр Endianness формата : Big
Идентификатор кодека : A_AC3
Продолжительность : 1 ч. 39 м.
Вид битрейта : Постоянный
Битрейт : 192 Кбит/сек
Каналы : 2 канала
Расположение каналов : Front: L R
Частота : 48,0 КГц
Битовая глубина : 16 бит
Метод сжатия : С потерями
Размер потока : 136 Мбайт (4%)
Заголовок : Original
Язык : French
Default : Нет
Forced : Нет
Текст #1
Идентификатор : 9
Формат : UTF-8
Идентификатор кодека : S_TEXT/UTF8
Идентификатор кодека/Информация : UTF-8 Plain Text
Язык : Russian
Default : Нет
Forced : Нет
Текст #2
Идентификатор : 10
Формат : UTF-8
Идентификатор кодека : S_TEXT/UTF8
Идентификатор кодека/Информация : UTF-8 Plain Text
Язык : French
Default : Нет
Forced : Нет
Текст #3
Идентификатор : 11
Формат : UTF-8
Идентификатор кодека : S_TEXT/UTF8
Идентификатор кодека/Информация : UTF-8 Plain Text
Язык : English
Default : Нет
Forced : Нет
Меню
00:00:00.000 : en:Chapter 01
00:09:05.458 : en:Chapter 02
00:16:55.916 : en:Chapter 03
00:25:09.750 : en:Chapter 04
00:33:30.541 : en:Chapter 05
00:42:18.875 : en:Chapter 06
00:50:18.041 : en:Chapter 07
00:59:56.666 : en:Chapter 08
01:07:00.166 : en:Chapter 09
01:15:11.125 : en:Chapter 10
01:26:04.333 : en:Chapter 11
01:32:35.791 : en:Chapter 12
Скриншоты:                    

Жaндарм в Нью-Йорке / Le Gendarme a New York (1965)

Жaндарм в Нью-Йорке / Le Gendarme a New York (1965) BDRip - «Новые приключения Крюшо» - Русское название: Жандарм в Нью-Йорке
Оригинальное название: Le Gendarme a New York
Страна: Франция Италия
Год выпуска: 1965
Жанр: Самая веселая комедия
Описание фильма:
Дружная бригада жандармов отправляется в Нью-Йорк представлять Францию на международном конгрессе полицейских. Крюшо, Мерло, Фугас, Трикар и Берлико во главе с бравым сержантом Жербером пускаются в дальний путь. Как не уронить честь мундира, если вас ждет страна небоскребов и соблазнов, а по-английски вы не знаете ни слова. К тому же Крюшо с ужасом обнаруживает, что его дочь Николь, вопреки воле отца, зайцем проникла на пароход, чтобы попасть в Нью-Йорк в поисках мужчины всей своей жизни. Если это откроется - его карьере конец...
Режиссер: Жан Жиро
Актеры: Луи де Фюнес, Женевьев Гра, Мишель Галабрю, Даниэль Коши, Кристиан Марен, Марино Мазе, Марио Пизу, Жан Лефевр, Ги Гроссо
Продолжительность: 01:41:48
Перевод: Дублированный, Многоголосый закадровый, Двухголосый закадровый, Одноголосый закадровый
Субтитры: Русские, Французские, Английские

Рейтинг MPAA: G – нет возрастных ограничений!!!
Дата мировой премьеры: 29 октября 1965
Видеокодек: MPEG-4 AVC
Битрейт видео: ~ 3500 Кбит/сек
Размер кадра: 1024x436
Качество видео: BDRip
Аудио:
Russian Dolby Digital 2.0 (НТВ+) , 192 Кбит/сек, 2 канала
Russian Dolby Digital 2.0 (Дубляж) , 192 Кбит/сек, 2 канала
Russian Dolby Digital 2.0 (РенТВ) , 192 Кбит/сек, 2 канала
Russian Dolby Digital 2.0 (Останкино) , 192 Кбит/сек, 2 канала
Russian Dolby Digital 2.0 (SomeWax) , 192 Кбит/сек, 2 канала
Russian Dolby Digital 2.0 (ТНТ) , 192 Кбит/сек, 2 канала
Ukrainian Dolby Digital 2.0 (НТН) , 192 Кбит/сек, 2 канала
French Dolby Digital 2.0 , 192 Кбит/сек, 2 канала

Знаете ли вы, что...

• В перерыве между съёмками Луи Де Фюнес перед публикой любил пародировать американских полицейских, за что от последних ему и был вручён комплект настоящей полицейской формы.
• В фильме присутствует ляп: в начале фильма во время путешествия из Сен-Тропе в Нью-Йорк, в аэропорту Парижа группа жандармов садится в черный фургончик с номером 212 3955, а во время поездки нам показывают, что они едут в точно таком же фургончике, но с номером 212 3907.
• В сцене, Крюшо переключает каналы, который слышит в наушниках, в третьем канале был голос, говорящий на чисто русском языке фразу «Мы очень гордимся тем прогрессом, который вы достигли…».
• Фрагмент этого фильма с жандармами на экскурсии в Нью-Йорке использовался в фильме «Жандарм на прогулке»

MediaInfo

Общее
Уникальный идентификатор : 218317010821650948510663984487821626679 (0xA43E53AC82B7340CB6DE7DDAE0B24D37)
Полное имя : G:\MPEG4\Zhandarmy.Kollekcija.1964-1982.x264.BDRip.(AVC)\2.Zhandarm.v.Nju-Jorke.1965.x264.BDRip.(AVC).mkv
Формат : Matroska
Версия формата : Version 2
Размер файла : 3,58 Гбайт
Продолжительность : 1 ч. 41 м.
Общий поток : 5039 Кбит/сек
Название фильма : Le Gendarme a New York (1965) - fanatus
Дата кодирования : UTC 2012-10-21 17:06:07
Программа кодирования : mkvmerge v3.4.0 ('Rapunzel') сборка от May 15 2010 09:38:20
Библиотека кодирования : libebml v0.8.0 + libmatroska v0.9.0
Видео
Идентификатор : 1
Формат : AVC
Формат/Информация : Advanced Video Codec
Профиль формата : [url=mailto:[email protected]][email protected][/url]
Параметр CABAC формата : Да
Параметр ReFrames формата : 10 кадров
Идентификатор кодека : V_MPEG4/ISO/AVC
Продолжительность : 1 ч. 41 м.
Битрейт : 3500 Кбит/сек
Ширина : 1024 пикселя
Высота : 436 пикселей
Соотношение сторон : 2,35:1
Режим частоты кадров : Постоянный
Частота кадров : 24,000 кадра/сек
Цветовое пространство : YUV
Субдискретизация насыщенности : 4:2:0
Битовая глубина : 8 бит
Тип развёртки : Прогрессивная
Бит/(Пиксели*Кадры) : 0.327
Размер потока : 2,42 Гбайт (68%)
Заголовок : Le Gendarme a New York (1965)
Библиотека кодирования : x264 core 128 r2216 198a7ea
Настройки программы : cabac=1 / ref=10 / deblock=1:-2:-2 / analyse=0x3:0x113 / me=umh / subme=11 / psy=1 / psy_rd=1.00:0.10 / mixed_ref=1 / me_range=48 / chroma_me=1 / trellis=2 / 8x8dct=1 / cqm=0 / deadzone=21,11 / fast_pskip=0 / chroma_qp_offset=-3 / threads=16 / lookahead_threads=2 / sliced_threads=0 / nr=0 / decimate=0 / interlaced=0 / bluray_compat=0 / constrained_intra=0 / bframes=10 / b_pyramid=2 / b_adapt=2 / b_bias=0 / direct=3 / weightb=1 / open_gop=0 / weightp=2 / keyint=240 / keyint_min=24 / scenecut=40 / intra_refresh=0 / rc_lookahead=40 / rc=2pass / mbtree=0 / bitrate=3500 / ratetol=1.0 / qcomp=0.60 / qpmin=0 / qpmax=69 / qpstep=3 / cplxblur=20.0 / qblur=0.5 / vbv_maxrate=50000 / vbv_bufsize=62500 / nal_hrd=none / ip_ratio=1.40 / pb_ratio=1.30 / aq=1:0.80
Язык : French
Default : Да
Forced : Нет
Коэффициенты матрицы : BT.709
Аудио #1
Идентификатор : 2
Формат : AC-3
Формат/Информация : Audio Coding 3
Профиль формата : Dolby Digital
Расширение режима : CM (complete main)
Параметр Endianness формата : Big
Идентификатор кодека : A_AC3
Продолжительность : 1 ч. 41 м.
Вид битрейта : Постоянный
Битрейт : 192 Кбит/сек
Каналы : 2 канала
Расположение каналов : Front: L R
Частота : 48,0 КГц
Битовая глубина : 16 бит
Метод сжатия : С потерями
Размер потока : 140 Мбайт (4%)
Заголовок : NTV+
Язык : Russian
Default : Да
Forced : Да
Аудио #2
Идентификатор : 3
Формат : AC-3
Формат/Информация : Audio Coding 3
Профиль формата : Dolby Digital
Расширение режима : CM (complete main)
Параметр Endianness формата : Big
Идентификатор кодека : A_AC3
Продолжительность : 1 ч. 41 м.
Вид битрейта : Постоянный
Битрейт : 192 Кбит/сек
Каналы : 2 канала
Расположение каналов : Front: L R
Частота : 48,0 КГц
Битовая глубина : 16 бит
Метод сжатия : С потерями
Размер потока : 140 Мбайт (4%)
Заголовок : Dub
Язык : Russian
Default : Нет
Forced : Нет
Аудио #3
Идентификатор : 4
Формат : AC-3
Формат/Информация : Audio Coding 3
Профиль формата : Dolby Digital
Расширение режима : CM (complete main)
Параметр Endianness формата : Big
Идентификатор кодека : A_AC3
Продолжительность : 1 ч. 41 м.
Вид битрейта : Постоянный
Битрейт : 192 Кбит/сек
Каналы : 2 канала
Расположение каналов : Front: L R
Частота : 48,0 КГц
Битовая глубина : 16 бит
Метод сжатия : С потерями
Размер потока : 140 Мбайт (4%)
Заголовок : RenTV
Язык : Russian
Default : Нет
Forced : Нет
Аудио #4
Идентификатор : 5
Формат : AC-3
Формат/Информация : Audio Coding 3
Профиль формата : Dolby Digital
Расширение режима : CM (complete main)
Параметр Endianness формата : Big
Идентификатор кодека : A_AC3
Продолжительность : 1 ч. 41 м.
Вид битрейта : Постоянный
Битрейт : 192 Кбит/сек
Каналы : 2 канала
Расположение каналов : Front: L R
Частота : 48,0 КГц
Битовая глубина : 16 бит
Метод сжатия : С потерями
Размер потока : 140 Мбайт (4%)
Заголовок : Ostankino
Язык : Russian
Default : Нет
Forced : Нет
Аудио #5
Идентификатор : 6
Формат : AC-3
Формат/Информация : Audio Coding 3
Профиль формата : Dolby Digital
Расширение режима : CM (complete main)
Параметр Endianness формата : Big
Идентификатор кодека : A_AC3
Продолжительность : 1 ч. 41 м.
Вид битрейта : Постоянный
Битрейт : 192 Кбит/сек
Каналы : 2 канала
Расположение каналов : Front: L R
Частота : 48,0 КГц
Битовая глубина : 16 бит
Метод сжатия : С потерями
Размер потока : 140 Мбайт (4%)
Заголовок : SomeWax
Язык : Russian
Default : Нет
Forced : Нет
Аудио #6
Идентификатор : 7
Формат : AC-3
Формат/Информация : Audio Coding 3
Профиль формата : Dolby Digital
Расширение режима : CM (complete main)
Параметр Endianness формата : Big
Идентификатор кодека : A_AC3
Продолжительность : 1 ч. 41 м.
Вид битрейта : Постоянный
Битрейт : 192 Кбит/сек
Каналы : 2 канала
Расположение каналов : Front: L R
Частота : 48,0 КГц
Битовая глубина : 16 бит
Метод сжатия : С потерями
Размер потока : 140 Мбайт (4%)
Заголовок : TNT
Язык : Russian
Default : Нет
Forced : Нет
Аудио #7
Идентификатор : 8
Формат : AC-3
Формат/Информация : Audio Coding 3
Профиль формата : Dolby Digital
Расширение режима : CM (complete main)
Параметр Endianness формата : Big
Идентификатор кодека : A_AC3
Продолжительность : 1 ч. 41 м.
Вид битрейта : Постоянный
Битрейт : 192 Кбит/сек
Каналы : 2 канала
Расположение каналов : Front: L R
Частота : 48,0 КГц
Битовая глубина : 16 бит
Метод сжатия : С потерями
Размер потока : 140 Мбайт (4%)
Заголовок : NTN
Язык : Ukrainian
Default : Нет
Forced : Нет
Аудио #8
Идентификатор : 9
Формат : AC-3
Формат/Информация : Audio Coding 3
Профиль формата : Dolby Digital
Расширение режима : CM (complete main)
Параметр Endianness формата : Big
Идентификатор кодека : A_AC3
Продолжительность : 1 ч. 41 м.
Вид битрейта : Постоянный
Битрейт : 192 Кбит/сек
Каналы : 2 канала
Расположение каналов : Front: L R
Частота : 48,0 КГц
Битовая глубина : 16 бит
Метод сжатия : С потерями
Размер потока : 140 Мбайт (4%)
Заголовок : Original
Язык : French
Default : Нет
Forced : Нет
Текст #1
Идентификатор : 10
Формат : UTF-8
Идентификатор кодека : S_TEXT/UTF8
Идентификатор кодека/Информация : UTF-8 Plain Text
Язык : Russian
Default : Нет
Forced : Нет
Текст #2
Идентификатор : 11
Формат : UTF-8
Идентификатор кодека : S_TEXT/UTF8
Идентификатор кодека/Информация : UTF-8 Plain Text
Язык : French
Default : Нет
Forced : Нет
Текст #3
Идентификатор : 12
Формат : UTF-8
Идентификатор кодека : S_TEXT/UTF8
Идентификатор кодека/Информация : UTF-8 Plain Text
Язык : English
Default : Нет
Forced : Нет
Меню
00:00:00.000 : en:Chapter 01
00:08:30.916 : en:Chapter 02
00:17:17.083 : en:Chapter 03
00:24:51.083 : en:Chapter 04
00:34:03.166 : en:Chapter 05
00:40:10.291 : en:Chapter 06
00:52:06.291 : en:Chapter 07
01:00:44.041 : en:Chapter 08
01:06:47.583 : en:Chapter 09
01:15:35.541 : en:Chapter 10
01:23:16.416 : en:Chapter 11
01:31:39.250 : en:Chapter 12
Скриншоты:                    

Жaндарм женится / Le Gendarme se marie (1968)

Жaндарм женится / Le Gendarme se marie (1968) BDRip - «Крюшо женится» - Русское название: Жандарм женится
Оригинальное название: Le Gendarme se marie
Страна: Франция Италия
Год выпуска: 1968
Жанр: Самая веселая комедия
Описание фильма:
На календаре первое июля, а это значит, что во Франции настало время всеобщих отпусков.
Толпы обезумевших от жажды развлечений туристов ринулись к морю, и наши старые знакомые должны во что бы то ни стало, любой ценой сдержать бурный натиск отдыхающих.
И вот, за отчаянно-быструю езду по горным дорогам Крюшо арестовывает очаровательную Жозефу, которая оказывается вдовой полковника жандармерии. После этого дочь Крюшо начинает замечать некоторые странности, происходящие с её отцом: он крутится перед зеркалом, закрашивая седые волосы, ходит в ночные клубы и старается выглядеть помоложе...
Режиссер: Жан Жиро
Актеры: Луи де Фюнес, Жан Лефевр, Женевьев Град, Кристиан Марен, Ив Венсан, Ги Гроссо, Мишель Модо, Маурицио Бонулья, Марио Давид, Клод Жанзак, Мишель Галабрю
Продолжительность: 01:29:18
Перевод: Дублированный, Многоголосый закадровый, Двухголосый закадровый, Одноголосый закадровый
Субтитры: Русские, Французские, Английские

Рейтинг MPAA: G – нет возрастных ограничений!!!
Дата мировой премьеры: 30 октября 1968
Видеокодек: MPEG-4 AVC
Битрейт видео: ~ 3500 Кбит/сек
Размер кадра: 1024x436
Качество видео: BDRip
Аудио:
Russian Dolby Digital 2.0 (НТВ+) , 192 Кбит/сек, 2 канала
Russian Dolby Digital 2.0 (Дубляж) , 192 Кбит/сек, 2 канала
Russian Dolby Digital 2.0 (РенТВ) , 192 Кбит/сек, 2 канала
Russian Dolby Digital 2.0 (Останкино) , 192 Кбит/сек, 2 канала
Russian Dolby Digital 2.0 (ОРТ) , 192 Кбит/сек, 2 канала
Russian Dolby Digital 2.0 (SomeWax) , 192 Кбит/сек, 2 канала
Ukrainian Dolby Digital 2.0 (НТН) , 192 Кбит/сек, 2 канала
French Dolby Digital 2.0 , 192 Кбит/сек, 2 канала

Знаете ли вы, что...

Фильм занимает 38-е место по посещаемости среди зарубежных лент в советском кинопрокате.

MediaInfo

Общее
Уникальный идентификатор : 178907485057532322116192953899884043206 (0x86985409D0133B5D8E842C920F2D5BC6)
Полное имя : G:\MPEG4\Zhandarmy.Kollekcija.1964-1982.x264.BDRip.(AVC)\3.Zhandarm.zhenitsja.1968.x264.BDRip.(AVC).mkv
Формат : Matroska
Версия формата : Version 2
Размер файла : 3,14 Гбайт
Продолжительность : 1 ч. 29 м.
Общий поток : 5037 Кбит/сек
Название фильма : Le Gendarme se marie (1968) - fanatus
Дата кодирования : UTC 2012-10-21 17:36:07
Программа кодирования : mkvmerge v3.4.0 ('Rapunzel') сборка от May 15 2010 09:38:20
Библиотека кодирования : libebml v0.8.0 + libmatroska v0.9.0
Видео
Идентификатор : 1
Формат : AVC
Формат/Информация : Advanced Video Codec
Профиль формата : [url=mailto:[email protected]][email protected][/url]
Параметр CABAC формата : Да
Параметр ReFrames формата : 10 кадров
Идентификатор кодека : V_MPEG4/ISO/AVC
Продолжительность : 1 ч. 29 м.
Битрейт : 3500 Кбит/сек
Ширина : 1024 пикселя
Высота : 436 пикселей
Соотношение сторон : 2,35:1
Режим частоты кадров : Постоянный
Частота кадров : 24,000 кадра/сек
Цветовое пространство : YUV
Субдискретизация насыщенности : 4:2:0
Битовая глубина : 8 бит
Тип развёртки : Прогрессивная
Бит/(Пиксели*Кадры) : 0.327
Размер потока : 2,12 Гбайт (68%)
Заголовок : Le Gendarme se marie (1968) - fanatus
Библиотека кодирования : x264 core 128 r2216 198a7ea
Настройки программы : cabac=1 / ref=10 / deblock=1:-2:-2 / analyse=0x3:0x113 / me=umh / subme=11 / psy=1 / psy_rd=1.00:0.10 / mixed_ref=1 / me_range=48 / chroma_me=1 / trellis=2 / 8x8dct=1 / cqm=0 / deadzone=21,11 / fast_pskip=0 / chroma_qp_offset=-3 / threads=16 / lookahead_threads=2 / sliced_threads=0 / nr=0 / decimate=0 / interlaced=0 / bluray_compat=0 / constrained_intra=0 / bframes=10 / b_pyramid=2 / b_adapt=2 / b_bias=0 / direct=3 / weightb=1 / open_gop=0 / weightp=2 / keyint=240 / keyint_min=24 / scenecut=40 / intra_refresh=0 / rc_lookahead=40 / rc=2pass / mbtree=0 / bitrate=3500 / ratetol=1.0 / qcomp=0.60 / qpmin=0 / qpmax=69 / qpstep=3 / cplxblur=20.0 / qblur=0.5 / vbv_maxrate=50000 / vbv_bufsize=62500 / nal_hrd=none / ip_ratio=1.40 / pb_ratio=1.30 / aq=1:0.80
Язык : French
Default : Да
Forced : Нет
Коэффициенты матрицы : BT.709
Аудио #1
Идентификатор : 2
Формат : AC-3
Формат/Информация : Audio Coding 3
Профиль формата : Dolby Digital
Расширение режима : CM (complete main)
Параметр Endianness формата : Big
Идентификатор кодека : A_AC3
Продолжительность : 1 ч. 29 м.
Вид битрейта : Постоянный
Битрейт : 192 Кбит/сек
Каналы : 2 канала
Расположение каналов : Front: L R
Частота : 48,0 КГц
Битовая глубина : 16 бит
Метод сжатия : С потерями
Размер потока : 123 Мбайт (4%)
Заголовок : NTV+
Язык : Russian
Default : Да
Forced : Да
Аудио #2
Идентификатор : 3
Формат : AC-3
Формат/Информация : Audio Coding 3
Профиль формата : Dolby Digital
Расширение режима : CM (complete main)
Параметр Endianness формата : Big
Идентификатор кодека : A_AC3
Продолжительность : 1 ч. 29 м.
Вид битрейта : Постоянный
Битрейт : 192 Кбит/сек
Каналы : 2 канала
Расположение каналов : Front: L R
Частота : 48,0 КГц
Битовая глубина : 16 бит
Метод сжатия : С потерями
Размер потока : 123 Мбайт (4%)
Заголовок : Dub
Язык : Russian
Default : Нет
Forced : Нет
Аудио #3
Идентификатор : 4
Формат : AC-3
Формат/Информация : Audio Coding 3
Профиль формата : Dolby Digital
Расширение режима : CM (complete main)
Параметр Endianness формата : Big
Идентификатор кодека : A_AC3
Продолжительность : 1 ч. 29 м.
Вид битрейта : Постоянный
Битрейт : 192 Кбит/сек
Каналы : 2 канала
Расположение каналов : Front: L R
Частота : 48,0 КГц
Битовая глубина : 16 бит
Метод сжатия : С потерями
Размер потока : 123 Мбайт (4%)
Заголовок : RenTV
Язык : Russian
Default : Нет
Forced : Нет
Аудио #4
Идентификатор : 5
Формат : AC-3
Формат/Информация : Audio Coding 3
Профиль формата : Dolby Digital
Расширение режима : CM (complete main)
Параметр Endianness формата : Big
Идентификатор кодека : A_AC3
Продолжительность : 1 ч. 29 м.
Вид битрейта : Постоянный
Битрейт : 192 Кбит/сек
Каналы : 2 канала
Расположение каналов : Front: L R
Частота : 48,0 КГц
Битовая глубина : 16 бит
Метод сжатия : С потерями
Размер потока : 123 Мбайт (4%)
Заголовок : Ostankino
Язык : Russian
Default : Нет
Forced : Нет
Аудио #5
Идентификатор : 6
Формат : AC-3
Формат/Информация : Audio Coding 3
Профиль формата : Dolby Digital
Расширение режима : CM (complete main)
Параметр Endianness формата : Big
Идентификатор кодека : A_AC3
Продолжительность : 1 ч. 29 м.
Вид битрейта : Постоянный
Битрейт : 192 Кбит/сек
Каналы : 2 канала
Расположение каналов : Front: L R
Частота : 48,0 КГц
Битовая глубина : 16 бит
Метод сжатия : С потерями
Размер потока : 123 Мбайт (4%)
Заголовок : ORT
Язык : Russian
Default : Нет
Forced : Нет
Аудио #6
Идентификатор : 7
Формат : AC-3
Формат/Информация : Audio Coding 3
Профиль формата : Dolby Digital
Расширение режима : CM (complete main)
Параметр Endianness формата : Big
Идентификатор кодека : A_AC3
Продолжительность : 1 ч. 29 м.
Вид битрейта : Постоянный
Битрейт : 192 Кбит/сек
Каналы : 2 канала
Расположение каналов : Front: L R
Частота : 48,0 КГц
Битовая глубина : 16 бит
Метод сжатия : С потерями
Размер потока : 123 Мбайт (4%)
Заголовок : SomeWax
Язык : Russian
Default : Нет
Forced : Нет
Аудио #7
Идентификатор : 8
Формат : AC-3
Формат/Информация : Audio Coding 3
Профиль формата : Dolby Digital
Расширение режима : CM (complete main)
Параметр Endianness формата : Big
Идентификатор кодека : A_AC3
Продолжительность : 1 ч. 29 м.
Вид битрейта : Постоянный
Битрейт : 192 Кбит/сек
Каналы : 2 канала
Расположение каналов : Front: L R
Частота : 48,0 КГц
Битовая глубина : 16 бит
Метод сжатия : С потерями
Размер потока : 123 Мбайт (4%)
Заголовок : NTN
Язык : Ukrainian
Default : Нет
Forced : Нет
Аудио #8
Идентификатор : 9
Формат : AC-3
Формат/Информация : Audio Coding 3
Профиль формата : Dolby Digital
Расширение режима : CM (complete main)
Параметр Endianness формата : Big
Идентификатор кодека : A_AC3
Продолжительность : 1 ч. 29 м.
Вид битрейта : Постоянный
Битрейт : 192 Кбит/сек
Каналы : 2 канала
Расположение каналов : Front: L R
Частота : 48,0 КГц
Битовая глубина : 16 бит
Метод сжатия : С потерями
Размер потока : 123 Мбайт (4%)
Заголовок : Original
Язык : French
Default : Нет
Forced : Нет
Текст #1
Идентификатор : 10
Формат : UTF-8
Идентификатор кодека : S_TEXT/UTF8
Идентификатор кодека/Информация : UTF-8 Plain Text
Язык : Russian
Default : Нет
Forced : Нет
Текст #2
Идентификатор : 11
Формат : UTF-8
Идентификатор кодека : S_TEXT/UTF8
Идентификатор кодека/Информация : UTF-8 Plain Text
Язык : French
Default : Нет
Forced : Нет
Текст #3
Идентификатор : 12
Формат : UTF-8
Идентификатор кодека : S_TEXT/UTF8
Идентификатор кодека/Информация : UTF-8 Plain Text
Язык : English
Default : Нет
Forced : Нет
Меню
00:00:00.000 : en:Chapter 01
00:08:47.000 : en:Chapter 02
00:20:16.875 : en:Chapter 03
00:24:52.875 : en:Chapter 04
00:34:28.375 : en:Chapter 05
00:42:13.125 : en:Chapter 06
00:50:15.541 : en:Chapter 07
00:58:03.875 : en:Chapter 08
01:06:03.000 : en:Chapter 09
01:15:34.041 : en:Chapter 10
01:20:01.291 : en:Chapter 11
01:24:57.541 : en:Chapter 12
Скриншоты:                    

Жaндарм на отдыхе / Le Gendarme en balade (1970)

Жaндарм на отдыхе / Le Gendarme en balade (1970) BDRip - «Возвращение старой команды» - Русское название: Жандарм на отдыхе
Оригинальное название: Le Gendarme en balade
Страна: Франция Италия
Год выпуска: 1970
Жанр: Самая веселая комедия
Описание фильма:
Всему приходит конец. Начальство сочло наших героев слишком старыми и отправило их на заслуженный отдых. Это трагический момент в жизни такого мужественного офицера как сержант Крюшо.
Его друзьям тоже не легче. Они иногда навещают друг друга и вспоминают былые дни. Но однажды мирное течение времени прерывается тревожной новостью: их друг Фугас в результате несчастного случая теряет память и помещается в специальный пансионат. Друзья решают выкрасть Фугаса и отправиться по местам их службы в надежде, что это напомнит ему о его прошлом...
Режиссер: Жан Жиро
Актеры: Луи де Фюнес, Жан Лефевр, Ги Гроссо, Мишель Модо, Николь Вервиль, Франс Румийи, Ив Венсан, Кристиан Марен, Клод Жанзак, Мишель Галабрю
Продолжительность: 01:40:21
Перевод: Многоголосый закадровый, Двухголосый закадровый, Одноголосый закадровый
Субтитры: Русские, Французские, Английские

Рейтинг MPAA: G – нет возрастных ограничений!!!
Дата мировой премьеры: 28 октября 1970
Видеокодек: MPEG-4 AVC
Битрейт видео: ~3500 Кбит/сек
Размер кадра: 1024x432
Качество видео: BDRip
Аудио:
Russian Dolby Digital 2.0 (НТВ+) , 192 Кбит/сек, 2 канала
Russian Dolby Digital 2.0 (РенТВ) , 192 Кбит/сек, 2 канала
Russian Dolby Digital 2.0 (Останкино) , 192 Кбит/сек, 2 канала
Russian Dolby Digital 2.0 (ОРТ) , 192 Кбит/сек, 2 канала
Russian Dolby Digital 2.0 (SomeWax) , 192 Кбит/сек, 2 канала
Ukrainian Dolby Digital 2.0 (НТН) , 192 Кбит/сек, 2 канала
French Dolby Digital 2.0 , 192 Кбит/сек, 2 канала

Знаете ли вы, что...

В пансионате Фугас и Крюшо играют в петанк — популярную французскую игру.

MediaInfo

Общее
Уникальный идентификатор : 210574938262970377736204776281098414155 (0x9E6B4206A3C7D28E89DFC26B686BE84B)
Полное имя : G:\MPEG4\Zhandarmy.Kollekcija.1964-1982.x264.BDRip.(AVC)\4.Zhandarm.na.otdyhe.1970.x264.BDRip.(AVC).mkv
Формат : Matroska
Версия формата : Version 2
Размер файла : 3,40 Гбайт
Продолжительность : 1 ч. 40 м.
Общий поток : 4848 Кбит/сек
Название фильма : Le Gendarme en balade (1970) - fanatus
Дата кодирования : UTC 2012-10-21 19:40:44
Программа кодирования : mkvmerge v3.4.0 ('Rapunzel') сборка от May 15 2010 09:38:20
Библиотека кодирования : libebml v0.8.0 + libmatroska v0.9.0
Видео
Идентификатор : 1
Формат : AVC
Формат/Информация : Advanced Video Codec
Профиль формата : [url=mailto:[email protected]][email protected][/url]
Параметр CABAC формата : Да
Параметр ReFrames формата : 10 кадров
Идентификатор кодека : V_MPEG4/ISO/AVC
Продолжительность : 1 ч. 40 м.
Битрейт : 3500 Кбит/сек
Ширина : 1024 пикселя
Высота : 432 пикселя
Соотношение сторон : 2,40:1
Режим частоты кадров : Постоянный
Частота кадров : 24,000 кадра/сек
Цветовое пространство : YUV
Субдискретизация насыщенности : 4:2:0
Битовая глубина : 8 бит
Тип развёртки : Прогрессивная
Бит/(Пиксели*Кадры) : 0.330
Размер потока : 2,39 Гбайт (70%)
Заголовок : Le Gendarme en balade (1970)
Библиотека кодирования : x264 core 128 r2216 198a7ea
Настройки программы : cabac=1 / ref=10 / deblock=1:-2:-2 / analyse=0x3:0x113 / me=umh / subme=11 / psy=1 / psy_rd=1.00:0.10 / mixed_ref=1 / me_range=48 / chroma_me=1 / trellis=2 / 8x8dct=1 / cqm=0 / deadzone=21,11 / fast_pskip=0 / chroma_qp_offset=-3 / threads=16 / lookahead_threads=2 / sliced_threads=0 / nr=0 / decimate=0 / interlaced=0 / bluray_compat=0 / constrained_intra=0 / bframes=10 / b_pyramid=2 / b_adapt=2 / b_bias=0 / direct=3 / weightb=1 / open_gop=0 / weightp=2 / keyint=240 / keyint_min=24 / scenecut=40 / intra_refresh=0 / rc_lookahead=40 / rc=2pass / mbtree=0 / bitrate=3500 / ratetol=1.0 / qcomp=0.60 / qpmin=0 / qpmax=69 / qpstep=3 / cplxblur=20.0 / qblur=0.5 / vbv_maxrate=50000 / vbv_bufsize=62500 / nal_hrd=none / ip_ratio=1.40 / pb_ratio=1.30 / aq=1:0.80
Язык : French
Default : Да
Forced : Нет
Коэффициенты матрицы : BT.709
Аудио #1
Идентификатор : 2
Формат : AC-3
Формат/Информация : Audio Coding 3
Профиль формата : Dolby Digital
Расширение режима : CM (complete main)
Параметр Endianness формата : Big
Идентификатор кодека : A_AC3
Продолжительность : 1 ч. 40 м.
Вид битрейта : Постоянный
Битрейт : 192 Кбит/сек
Каналы : 2 канала
Расположение каналов : Front: L R
Частота : 48,0 КГц
Битовая глубина : 16 бит
Метод сжатия : С потерями
Размер потока : 138 Мбайт (4%)
Заголовок : NTV+
Язык : Russian
Default : Да
Forced : Да
Аудио #2
Идентификатор : 3
Формат : AC-3
Формат/Информация : Audio Coding 3
Профиль формата : Dolby Digital
Расширение режима : CM (complete main)
Параметр Endianness формата : Big
Идентификатор кодека : A_AC3
Продолжительность : 1 ч. 40 м.
Вид битрейта : Постоянный
Битрейт : 192 Кбит/сек
Каналы : 2 канала
Расположение каналов : Front: L R
Частота : 48,0 КГц
Битовая глубина : 16 бит
Метод сжатия : С потерями
Размер потока : 138 Мбайт (4%)
Заголовок : RenTV
Язык : Russian
Default : Нет
Forced : Нет
Аудио #3
Идентификатор : 4
Формат : AC-3
Формат/Информация : Audio Coding 3
Профиль формата : Dolby Digital
Расширение режима : CM (complete main)
Параметр Endianness формата : Big
Идентификатор кодека : A_AC3
Продолжительность : 1 ч. 40 м.
Вид битрейта : Постоянный
Битрейт : 192 Кбит/сек
Каналы : 2 канала
Расположение каналов : Front: L R
Частота : 48,0 КГц
Битовая глубина : 16 бит
Метод сжатия : С потерями
Размер потока : 138 Мбайт (4%)
Заголовок : Ostankino
Язык : Russian
Default : Нет
Forced : Нет
Аудио #4
Идентификатор : 5
Формат : AC-3
Формат/Информация : Audio Coding 3
Профиль формата : Dolby Digital
Расширение режима : CM (complete main)
Параметр Endianness формата : Big
Идентификатор кодека : A_AC3
Продолжительность : 1 ч. 40 м.
Вид битрейта : Постоянный
Битрейт : 192 Кбит/сек
Каналы : 2 канала
Расположение каналов : Front: L R
Частота : 48,0 КГц
Битовая глубина : 16 бит
Метод сжатия : С потерями
Размер потока : 138 Мбайт (4%)
Заголовок : ORT
Язык : Russian
Default : Нет
Forced : Нет
Аудио #5
Идентификатор : 6
Формат : AC-3
Формат/Информация : Audio Coding 3
Профиль формата : Dolby Digital
Расширение режима : CM (complete main)
Параметр Endianness формата : Big
Идентификатор кодека : A_AC3
Продолжительность : 1 ч. 40 м.
Вид битрейта : Постоянный
Битрейт : 192 Кбит/сек
Каналы : 2 канала
Расположение каналов : Front: L R
Частота : 48,0 КГц
Битовая глубина : 16 бит
Метод сжатия : С потерями
Размер потока : 138 Мбайт (4%)
Заголовок : SomeWax
Язык : Russian
Default : Нет
Forced : Нет
Аудио #6
Идентификатор : 7
Формат : AC-3
Формат/Информация : Audio Coding 3
Профиль формата : Dolby Digital
Расширение режима : CM (complete main)
Параметр Endianness формата : Big
Идентификатор кодека : A_AC3
Продолжительность : 1 ч. 40 м.
Вид битрейта : Постоянный
Битрейт : 192 Кбит/сек
Каналы : 2 канала
Расположение каналов : Front: L R
Частота : 48,0 КГц
Битовая глубина : 16 бит
Метод сжатия : С потерями
Размер потока : 138 Мбайт (4%)
Заголовок : NTN
Язык : Ukrainian
Default : Нет
Forced : Нет
Аудио #7
Идентификатор : 8
Формат : AC-3
Формат/Информация : Audio Coding 3
Профиль формата : Dolby Digital
Расширение режима : CM (complete main)
Параметр Endianness формата : Big
Идентификатор кодека : A_AC3
Продолжительность : 1 ч. 40 м.
Вид битрейта : Постоянный
Битрейт : 192 Кбит/сек
Каналы : 2 канала
Расположение каналов : Front: L R
Частота : 48,0 КГц
Битовая глубина : 16 бит
Метод сжатия : С потерями
Размер потока : 138 Мбайт (4%)
Заголовок : Original
Язык : French
Default : Нет
Forced : Нет
Текст #1
Идентификатор : 9
Формат : UTF-8
Идентификатор кодека : S_TEXT/UTF8
Идентификатор кодека/Информация : UTF-8 Plain Text
Язык : Russian
Default : Нет
Forced : Нет
Текст #2
Идентификатор : 10
Формат : UTF-8
Идентификатор кодека : S_TEXT/UTF8
Идентификатор кодека/Информация : UTF-8 Plain Text
Язык : French
Default : Нет
Forced : Нет
Текст #3
Идентификатор : 11
Формат : UTF-8
Идентификатор кодека : S_TEXT/UTF8
Идентификатор кодека/Информация : UTF-8 Plain Text
Язык : English
Default : Нет
Forced : Нет
Меню
00:00:00.000 : en:Chapter 01
00:08:16.041 : en:Chapter 02
00:18:33.083 : en:Chapter 03
00:25:04.625 : en:Chapter 04
00:34:39.791 : en:Chapter 05
00:44:11.250 : en:Chapter 06
00:47:57.083 : en:Chapter 07
00:58:07.791 : en:Chapter 08
01:07:58.625 : en:Chapter 09
01:16:43.250 : en:Chapter 10
01:26:33.333 : en:Chapter 11
01:36:35.791 : en:Chapter 12
Скриншоты:                    

Жaндарм и инопланетяне / Le Gendarme et les extra-terrestres (1979)

Жaндарм и инопланетяне / Le Gendarme et les extra-terrestres (1979) BDRip - «Крюшо атакует» - Русское название: Жандарм и инопланетяне
Оригинальное название: Le Gendarme et les extra-terrestres
Страна: Франция Италия
Год выпуска: 1979
Жанр: Самая веселая комедия
Описание фильма:
Все земные враги уже побеждены бесстрашным отрядом жандармов и их сержантом Крюшо (Луи де Фюнес). Осталось помериться силами с пришельцами. И они действительно высаживаются в окрестностях Сен-Тропеза. Коварные существа не выступают в своем истинном злобном обличьи. Они принимают вид самих жандармов, отличаясь от людей только тем, что пьют масло и ржавеют от воды... Это приводит к бесчисленным комическим ситуациям. Неизвестно, что случилось бы с Землей, если бы не доходящее до полного идиотизма мужество сержанта Крюшо...
Режиссер: Жан Жиро
Актеры: Луи де Фюнес, Мишель Галабрю, Морис Риш, Жан-Пьер Рамбаль, Ги Гроссо, Мишель Модо, Франс Румийи, Жан-Роже Коссимон, Марио Давид, Жак Франсуа, Мария Мобан
Продолжительность: 01:31:38
Перевод: Дублированный, Многоголосый закадровый, Двухголосый закадровый, Одноголосый закадровый
Субтитры: Русские, Французские, Английские

Рейтинг MPAA: G – нет возрастных ограничений!!!
Дата мировой премьеры: 31 января 1979
Видеокодек: MPEG-4 AVC
Битрейт видео: ~ 3500 Кбит/сек
Размер кадра: 964x576
Качество видео: BDRip
Аудио:
Russian Dolby Digital 2.0 (Twister/Тивионика) , 192 Кбит/сек, 2 канала
Russian Dolby Digital 2.0 (Дубляж) , 192 Кбит/сек, 2 канала
Russian Dolby Digital 2.0 (РенТВ) , 192 Кбит/сек, 2 канала
Russian Dolby Digital 2.0 (Останкино) , 192 Кбит/сек, 2 канала
Russian Dolby Digital 2.0 (ОРТ) , 192 Кбит/сек, 2 канала
Ukrainian Dolby Digital 2.0 (НТН) , 192 Кбит/сек, 2 канала
French Dolby Digital 2.0 , 192 Кбит/сек, 2 канала

Награды

1980: Премия «Золотой экран», Германия.

Знаете ли вы, что...

• Основная сюжетная линия фильма пародирует американский фильм «Вторжение похитителей тел» 1954 г.
• Занимает 82-е место по посещаемости среди зарубежных фильмов в советском кинопрокате.

MediaInfo

Общее
Уникальный идентификатор : 235339093780414224706157668108543609494 (0xB10CA928DB2D76BE970730CA1DEE4A96)
Полное имя : G:\MPEG4\Zhandarmy.Kollekcija.1964-1982.x264.BDRip.(AVC)\5.Zhandarm.i.inoplanetjane.1979.x264.BDRip.(AVC).mkv
Формат : Matroska
Версия формата : Version 2
Размер файла : 3,10 Гбайт
Продолжительность : 1 ч. 31 м.
Общий поток : 4848 Кбит/сек
Название фильма : Le Gendarme et les extra-terrestres (1979) - fanatus
Дата кодирования : UTC 2012-10-21 20:36:48
Программа кодирования : mkvmerge v3.4.0 ('Rapunzel') сборка от May 15 2010 09:38:20
Библиотека кодирования : libebml v0.8.0 + libmatroska v0.9.0
Видео
Идентификатор : 1
Формат : AVC
Формат/Информация : Advanced Video Codec
Профиль формата : [url=mailto:[email protected]][email protected][/url]
Параметр CABAC формата : Да
Параметр ReFrames формата : 10 кадров
Идентификатор кодека : V_MPEG4/ISO/AVC
Продолжительность : 1 ч. 31 м.
Битрейт : 3500 Кбит/сек
Ширина : 964 пикселя
Высота : 576 пикселей
Соотношение сторон : 1,674
Режим частоты кадров : Постоянный
Частота кадров : 24,000 кадра/сек
Цветовое пространство : YUV
Субдискретизация насыщенности : 4:2:0
Битовая глубина : 8 бит
Тип развёртки : Прогрессивная
Бит/(Пиксели*Кадры) : 0.263
Размер потока : 2,18 Гбайт (70%)
Заголовок : Le Gendarme et les extra-terrestres (1979)
Библиотека кодирования : x264 core 128 r2216 198a7ea
Настройки программы : cabac=1 / ref=10 / deblock=1:-2:-2 / analyse=0x3:0x113 / me=umh / subme=11 / psy=1 / psy_rd=1.00:0.10 / mixed_ref=1 / me_range=48 / chroma_me=1 / trellis=2 / 8x8dct=1 / cqm=0 / deadzone=21,11 / fast_pskip=0 / chroma_qp_offset=-3 / threads=16 / lookahead_threads=2 / sliced_threads=0 / nr=0 / decimate=0 / interlaced=0 / bluray_compat=0 / constrained_intra=0 / bframes=10 / b_pyramid=2 / b_adapt=2 / b_bias=0 / direct=3 / weightb=1 / open_gop=0 / weightp=2 / keyint=240 / keyint_min=24 / scenecut=40 / intra_refresh=0 / rc_lookahead=40 / rc=2pass / mbtree=0 / bitrate=3500 / ratetol=1.0 / qcomp=0.60 / qpmin=0 / qpmax=69 / qpstep=3 / cplxblur=20.0 / qblur=0.5 / vbv_maxrate=50000 / vbv_bufsize=62500 / nal_hrd=none / ip_ratio=1.40 / pb_ratio=1.30 / aq=1:0.80
Язык : French
Default : Да
Forced : Нет
Коэффициенты матрицы : BT.709
Аудио #1
Идентификатор : 2
Формат : AC-3
Формат/Информация : Audio Coding 3
Профиль формата : Dolby Digital
Расширение режима : CM (complete main)
Параметр Endianness формата : Big
Идентификатор кодека : A_AC3
Продолжительность : 1 ч. 31 м.
Вид битрейта : Постоянный
Битрейт : 192 Кбит/сек
Каналы : 2 канала
Расположение каналов : Front: L R
Частота : 48,0 КГц
Битовая глубина : 16 бит
Метод сжатия : С потерями
Размер потока : 126 Мбайт (4%)
Заголовок : Twister-Tivionika
Язык : Russian
Default : Да
Forced : Да
Аудио #2
Идентификатор : 3
Формат : AC-3
Формат/Информация : Audio Coding 3
Профиль формата : Dolby Digital
Расширение режима : CM (complete main)
Параметр Endianness формата : Big
Идентификатор кодека : A_AC3
Продолжительность : 1 ч. 31 м.
Вид битрейта : Постоянный
Битрейт : 192 Кбит/сек
Каналы : 2 канала
Расположение каналов : Front: L R
Частота : 48,0 КГц
Битовая глубина : 16 бит
Метод сжатия : С потерями
Размер потока : 126 Мбайт (4%)
Заголовок : Dub
Язык : Russian
Default : Нет
Forced : Нет
Аудио #3
Идентификатор : 4
Формат : AC-3
Формат/Информация : Audio Coding 3
Профиль формата : Dolby Digital
Расширение режима : CM (complete main)
Параметр Endianness формата : Big
Идентификатор кодека : A_AC3
Продолжительность : 1 ч. 31 м.
Вид битрейта : Постоянный
Битрейт : 192 Кбит/сек
Каналы : 2 канала
Расположение каналов : Front: L R
Частота : 48,0 КГц
Битовая глубина : 16 бит
Метод сжатия : С потерями
Размер потока : 126 Мбайт (4%)
Заголовок : RenTV
Язык : Russian
Default : Нет
Forced : Нет
Аудио #4
Идентификатор : 5
Формат : AC-3
Формат/Информация : Audio Coding 3
Профиль формата : Dolby Digital
Расширение режима : CM (complete main)
Параметр Endianness формата : Big
Идентификатор кодека : A_AC3
Продолжительность : 1 ч. 31 м.
Вид битрейта : Постоянный
Битрейт : 192 Кбит/сек
Каналы : 2 канала
Расположение каналов : Front: L R
Частота : 48,0 КГц
Битовая глубина : 16 бит
Метод сжатия : С потерями
Размер потока : 126 Мбайт (4%)
Заголовок : Ostankino
Язык : Russian
Default : Нет
Forced : Нет
Аудио #5
Идентификатор : 6
Формат : AC-3
Формат/Информация : Audio Coding 3
Профиль формата : Dolby Digital
Расширение режима : CM (complete main)
Параметр Endianness формата : Big
Идентификатор кодека : A_AC3
Продолжительность : 1 ч. 31 м.
Вид битрейта : Постоянный
Битрейт : 192 Кбит/сек
Каналы : 2 канала
Расположение каналов : Front: L R
Частота : 48,0 КГц
Битовая глубина : 16 бит
Метод сжатия : С потерями
Размер потока : 126 Мбайт (4%)
Заголовок : ORT
Язык : Russian
Default : Нет
Forced : Нет
Аудио #6
Идентификатор : 7
Формат : AC-3
Формат/Информация : Audio Coding 3
Профиль формата : Dolby Digital
Расширение режима : CM (complete main)
Параметр Endianness формата : Big
Идентификатор кодека : A_AC3
Продолжительность : 1 ч. 31 м.
Вид битрейта : Постоянный
Битрейт : 192 Кбит/сек
Каналы : 2 канала
Расположение каналов : Front: L R
Частота : 48,0 КГц
Битовая глубина : 16 бит
Метод сжатия : С потерями
Размер потока : 126 Мбайт (4%)
Заголовок : NTN
Язык : Ukrainian
Default : Нет
Forced : Нет
Аудио #7
Идентификатор : 8
Формат : AC-3
Формат/Информация : Audio Coding 3
Профиль формата : Dolby Digital
Расширение режима : CM (complete main)
Параметр Endianness формата : Big
Идентификатор кодека : A_AC3
Продолжительность : 1 ч. 31 м.
Вид битрейта : Постоянный
Битрейт : 192 Кбит/сек
Каналы : 2 канала
Расположение каналов : Front: L R
Частота : 48,0 КГц
Битовая глубина : 16 бит
Метод сжатия : С потерями
Размер потока : 126 Мбайт (4%)
Заголовок : Original
Язык : French
Default : Нет
Forced : Нет
Текст #1
Идентификатор : 9
Формат : UTF-8
Идентификатор кодека : S_TEXT/UTF8
Идентификатор кодека/Информация : UTF-8 Plain Text
Язык : Russian
Default : Нет
Forced : Нет
Текст #2
Идентификатор : 10
Формат : UTF-8
Идентификатор кодека : S_TEXT/UTF8
Идентификатор кодека/Информация : UTF-8 Plain Text
Язык : French
Default : Нет
Forced : Нет
Текст #3
Идентификатор : 11
Формат : UTF-8
Идентификатор кодека : S_TEXT/UTF8
Идентификатор кодека/Информация : UTF-8 Plain Text
Язык : English
Default : Нет
Forced : Нет
Меню
00:00:00.000 : en:Chapter 01
00:08:17.791 : en:Chapter 02
00:16:47.750 : en:Chapter 03
00:24:34.583 : en:Chapter 04
00:32:16.041 : en:Chapter 05
00:39:35.083 : en:Chapter 06
00:44:23.375 : en:Chapter 07
00:50:34.666 : en:Chapter 08
00:59:43.833 : en:Chapter 09
01:07:45.375 : en:Chapter 10
01:15:13.708 : en:Chapter 11
01:21:01.000 : en:Chapter 12
Скриншоты:                    

Жaндарм и жандарметки / Le Gendarme et les gendarmettes (1982)

Жaндарм и жандарметки / Le Gendarme et les gendarmettes (1982) BDRip - «Жандарм в юбке» - Русское название: Жандарм и жандарметки
Оригинальное название: Le Gendarme et les gendarmettes
Страна: Франция Италия
Год выпуска: 1982
Жанр: Самая веселая комедия
Описание фильма:
Новые времена — новые нравы. В жандармерию присылают четырех стажеров — девушек с ногами от шеи. Наши герои приходят в приятное волнение, а их жены — в исступление. Седина в бороду, бес в ребро.
Как назло, девушек похищают неизвестные злодеи. Честь мундира висит на волоске. Если Крюшо не вернет стажеров завтра к утру, его уволят без рекомендаций и выходного пособия.
Пройдя через цепь невероятных комедийных и фривольных ситуаций, наши герои нейтрализуют целое шпионское гнездо и вызволяют из плена красавиц — жандарметок.
Режиссер: Тони Абоянц, Жан Жиро
Актеры: Луи де Фюнес, Мишель Галабрю, Жан Лефевр, Мишель Модо, Женевьев Град, Жак Франсуа, Морис Риш, Клод Жанзак, Катрин Сэр, Софи Мишо, Ги Гроссо, Франс Румийи, Бабет, Патрик Прежан
Продолжительность: 01:38:43
Перевод: Многоголосый закадровый, Одноголосый закадровый
Субтитры: Французские, Английские

Рейтинг MPAA: G – нет возрастных ограничений!!!
Дата мировой премьеры: 6 октября 1982
Видеокодек: MPEG-4 AVC
Битрейт видео: ~19000 kbps
Размер кадра: 1806x1080
Качество видео: BDRip
Аудио:
Russian Dolby Digital 2.0 (РенТВ) , 192 Кбит/сек, 2 канала
Russian Dolby Digital 2.0 (Останкино) , 192 Кбит/сек, 2 канала
Russian Dolby Digital 2.0 (ОРТ) , 192 Кбит/сек, 2 канала
Ukrainian Dolby Digital 2.0 (НТН) , 192 Кбит/сек, 2 канала
French Dolby Digital 2.0 , 192 Кбит/сек, 2 канала

Знаете ли вы, что...

• Режиссёр фильма Жан Жиро умер во время съёмок 20 июля 1982 года от туберкулёза. Завершил съёмки фильма его помощник Тони Абоянц.
• Кристиан Клавье появляется в течение полусекундного эпизода в сцене аварии, спровоцированной танцем на дороге жандарма и жандарметки. Его имя не упомянуто в титрах.
• Бабет Этьен (Babeth Étienne), исполняющая в фильме роль Марианны Боннэ, одной из жандарметок, являлась на тот момент супругой французского певца Джонни Халлидея.
Несмотря на принадлежность к знаменитому сериалу о незадачливом начальнике полиции, эту картину российские зрители так и не увидели до 1992 года благодаря некоторой фривольности ряда сцен.

MediaInfo

Общее
Уникальный идентификатор : 243046210461114570671688095736453123249 (0xB6D8FF5984ACD55B88981886A01BCCB1)
Полное имя : G:\MPEG4\Zhandarmy.Kollekcija.1964-1982.x264.BDRip.(AVC)\6.Zhandarm.i.zhandarmetki.1982.x264.BDRip.(AVC).mkv
Формат : Matroska
Версия формата : Version 2
Размер файла : 3,08 Гбайт
Продолжительность : 1 ч. 38 м.
Общий поток : 4463 Кбит/сек
Название фильма : Le Gendarme et les gendarmettes (1982) - fanatus
Дата кодирования : UTC 2012-10-21 21:44:35
Программа кодирования : mkvmerge v3.4.0 ('Rapunzel') сборка от May 15 2010 09:38:20
Библиотека кодирования : libebml v0.8.0 + libmatroska v0.9.0
Видео
Идентификатор : 1
Формат : AVC
Формат/Информация : Advanced Video Codec
Профиль формата : [url=mailto:[email protected]][email protected][/url]
Параметр CABAC формата : Да
Параметр ReFrames формата : 10 кадров
Идентификатор кодека : V_MPEG4/ISO/AVC
Продолжительность : 1 ч. 38 м.
Битрейт : 3500 Кбит/сек
Ширина : 966 пикселей
Высота : 576 пикселей
Соотношение сторон : 1,677
Режим частоты кадров : Постоянный
Частота кадров : 24,000 кадра/сек
Цветовое пространство : YUV
Субдискретизация насыщенности : 4:2:0
Битовая глубина : 8 бит
Тип развёртки : Прогрессивная
Бит/(Пиксели*Кадры) : 0.262
Размер потока : 2,35 Гбайт (77%)
Заголовок : Le Gendarme et les gendarmettes (1982)
Библиотека кодирования : x264 core 128 r2216 198a7ea
Настройки программы : cabac=1 / ref=10 / deblock=1:-2:-2 / analyse=0x3:0x113 / me=umh / subme=11 / psy=1 / psy_rd=1.00:0.10 / mixed_ref=1 / me_range=48 / chroma_me=1 / trellis=2 / 8x8dct=1 / cqm=0 / deadzone=21,11 / fast_pskip=0 / chroma_qp_offset=-3 / threads=16 / lookahead_threads=2 / sliced_threads=0 / nr=0 / decimate=0 / interlaced=0 / bluray_compat=0 / constrained_intra=0 / bframes=10 / b_pyramid=2 / b_adapt=2 / b_bias=0 / direct=3 / weightb=1 / open_gop=0 / weightp=2 / keyint=240 / keyint_min=24 / scenecut=40 / intra_refresh=0 / rc_lookahead=40 / rc=2pass / mbtree=0 / bitrate=3500 / ratetol=1.0 / qcomp=0.60 / qpmin=0 / qpmax=69 / qpstep=3 / cplxblur=20.0 / qblur=0.5 / vbv_maxrate=50000 / vbv_bufsize=62500 / nal_hrd=none / ip_ratio=1.40 / pb_ratio=1.30 / aq=1:0.80
Язык : French
Default : Да
Forced : Нет
Коэффициенты матрицы : BT.709
Аудио #1
Идентификатор : 2
Формат : AC-3
Формат/Информация : Audio Coding 3
Профиль формата : Dolby Digital
Расширение режима : CM (complete main)
Параметр Endianness формата : Big
Идентификатор кодека : A_AC3
Продолжительность : 1 ч. 38 м.
Вид битрейта : Постоянный
Битрейт : 192 Кбит/сек
Каналы : 2 канала
Расположение каналов : Front: L R
Частота : 48,0 КГц
Битовая глубина : 16 бит
Метод сжатия : С потерями
Размер потока : 136 Мбайт (4%)
Заголовок : RenTV
Язык : Russian
Default : Да
Forced : Да
Аудио #2
Идентификатор : 3
Формат : AC-3
Формат/Информация : Audio Coding 3
Профиль формата : Dolby Digital
Расширение режима : CM (complete main)
Параметр Endianness формата : Big
Идентификатор кодека : A_AC3
Продолжительность : 1 ч. 38 м.
Вид битрейта : Постоянный
Битрейт : 192 Кбит/сек
Каналы : 2 канала
Расположение каналов : Front: L R
Частота : 48,0 КГц
Битовая глубина : 16 бит
Метод сжатия : С потерями
Размер потока : 136 Мбайт (4%)
Заголовок : Ostankino
Язык : Russian
Default : Нет
Forced : Нет
Аудио #3
Идентификатор : 4
Формат : AC-3
Формат/Информация : Audio Coding 3
Профиль формата : Dolby Digital
Расширение режима : CM (complete main)
Параметр Endianness формата : Big
Идентификатор кодека : A_AC3
Продолжительность : 1 ч. 38 м.
Вид битрейта : Постоянный
Битрейт : 192 Кбит/сек
Каналы : 2 канала
Расположение каналов : Front: L R
Частота : 48,0 КГц
Битовая глубина : 16 бит
Метод сжатия : С потерями
Размер потока : 136 Мбайт (4%)
Заголовок : ORT
Язык : Russian
Default : Нет
Forced : Нет
Аудио #4
Идентификатор : 5
Формат : AC-3
Формат/Информация : Audio Coding 3
Профиль формата : Dolby Digital
Расширение режима : CM (complete main)
Параметр Endianness формата : Big
Идентификатор кодека : A_AC3
Продолжительность : 1 ч. 38 м.
Вид битрейта : Постоянный
Битрейт : 192 Кбит/сек
Каналы : 2 канала
Расположение каналов : Front: L R
Частота : 48,0 КГц
Битовая глубина : 16 бит
Метод сжатия : С потерями
Размер потока : 136 Мбайт (4%)
Заголовок : NTN
Язык : Ukrainian
Default : Нет
Forced : Нет
Аудио #5
Идентификатор : 6
Формат : AC-3
Формат/Информация : Audio Coding 3
Профиль формата : Dolby Digital
Расширение режима : CM (complete main)
Параметр Endianness формата : Big
Идентификатор кодека : A_AC3
Продолжительность : 1 ч. 38 м.
Вид битрейта : Постоянный
Битрейт : 192 Кбит/сек
Каналы : 2 канала
Расположение каналов : Front: L R
Частота : 48,0 КГц
Битовая глубина : 16 бит
Метод сжатия : С потерями
Размер потока : 136 Мбайт (4%)
Заголовок : Original
Язык : French
Default : Нет
Forced : Нет
Текст #1
Идентификатор : 7
Формат : UTF-8
Идентификатор кодека : S_TEXT/UTF8
Идентификатор кодека/Информация : UTF-8 Plain Text
Язык : Russian
Default : Нет
Forced : Нет
Текст #2
Идентификатор : 8
Формат : UTF-8
Идентификатор кодека : S_TEXT/UTF8
Идентификатор кодека/Информация : UTF-8 Plain Text
Язык : French
Default : Нет
Forced : Нет
Текст #3
Идентификатор : 9
Формат : UTF-8
Идентификатор кодека : S_TEXT/UTF8
Идентификатор кодека/Информация : UTF-8 Plain Text
Язык : English
Default : Нет
Forced : Нет
Меню
00:00:00.000 : en:Chapter 01
00:09:05.250 : en:Chapter 02
00:19:15.791 : en:Chapter 03
00:29:17.583 : en:Chapter 04
00:34:08.166 : en:Chapter 05
00:41:00.625 : en:Chapter 06
00:49:50.750 : en:Chapter 07
00:58:50.750 : en:Chapter 08
01:06:41.208 : en:Chapter 09
01:14:09.708 : en:Chapter 10
01:25:01.208 : en:Chapter 11
01:34:18.916 : en:Chapter 12
Скриншоты:                    

-
Скриншоты:
         
         
Вне форума [Профиль] [ЛС]
Показать сообщения:    
Ответить на тему

Текущее время: Сегодня 00:20

Часовой пояс: GMT + 3



Вы не можете начинать темы
Вы не можете отвечать на сообщения
Вы не можете редактировать свои сообщения
Вы не можете удалять свои сообщения
Вы не можете голосовать в опросах
Вы не можете прикреплять файлы к сообщениям
Вы не можете скачивать файлы