Сегодня идет свободное скачивание без начисления Download

Сталинград / Stalingrad (Йозеф Вильсмайер) (Военный, Драма, 1993) BDRip

Ответить на тему
 
Автор
Сообщение

Omen ®

Стаж: 4 года 1 месяц

Сообщений: 194359

Торрент-статистика

Пост 29-Май-2013 14:27

[Цитировать]

Сталинград / Stalingrad Русское название: Сталинград
Оригинальное название: Stalingrad
Год выпуска: 1993
Жанр: Военный, Драма
Описание фильма: Зима 1942 года. Шестая армия вермахта сражается в разрушенном до основания Сталинграде. Взвод элитных немецких солдат, в первой же битве потерявший больше половины личного состава, ведет отчаянную борьбу за выживание.
Свист пуль и рев «катюш», голод и холод доводят их до грани безумия. Уже почти ничего не удерживает солдат на тонкой линии между жизнью и смертью. После всего, что они видели, после утраты всех идеалов призыв фюрера «стоять до конца» приобретает для них совсем другое, гораздо более страшное значение…
Режиссер: Йозеф Вильсмайер
Актеры: Доминик Хорвиц, Томас Кретчманн, Йохен Никель, Себастиан Рудолф, Мартин Бенрат, Сильвестр Грот, Хайнц Эмигхольц, Карел Херманек, Дитер Окрас, Оливер Браумис, Марк Кун, Зденек Венцль, Дана Ваврова
Продолжительность: 02:17:51
Перевод: Двуголосый закадровый (профессиональный)

Дата мировой премьеры: 21 января 1993
Видеокодек: Xvid
Битрейт видео: ~1312 kbps
Размер кадра: 720x384
Качество видео: BDRip
Аудиокодек: AC3 2.0
Битрейт аудио: 192.00 kbps

&

MediaInfo

Общее
Полное имя : D:\Раздачи\Stalingrad.1993.BDRip.avi
Формат : AVI
Формат/Информация : Audio Video Interleave
Профиль формата : OpenDML
Настройки формата : rec
Размер файла : 1,45 Гбайт
Продолжительность : 2 ч. 17 м.
Общий поток : 1509 Кбит/сек
Название фильма : Сталинград / Stalingrad (1993) BDRip rip by Rulya74
Программа кодирования : AVI-Mux GUI 1.17.8.3, Feb 16 201019:42:50
Видео
Идентификатор : 0
Формат : MPEG-4 Visual
Профиль формата : Advanced [email protected]
Параметр BVOP формата : 1
Параметр QPel формата : Нет
Параметр GMC формата : Без точки перехода
Параметр матрицы формата : Выборочная
Режим смешивания : Сжатый битовый поток
Идентификатор кодека : XVID
Идентификатор кодека/Подсказка : XviD
Продолжительность : 2 ч. 17 м.
Битрейт : 1312 Кбит/сек
Ширина : 720 пикселей
Высота : 384 пикселя
Соотношение сторон : 1,875
Частота кадров : 23,976 кадра/сек
Цветовое пространство : YUV
Субдискретизация насыщенности : 4:2:0
Битовая глубина : 8 бит
Тип развёртки : Прогрессивная
Метод сжатия : С потерями
Бит/(Пиксели*Кадры) : 0.198
Размер потока : 1,26 Гбайт (87%)
Библиотека кодирования : XviD 65
Аудио
Идентификатор : 1
Формат : AC-3
Формат/Информация : Audio Coding 3
Расширение режима : CM (complete main)
Идентификатор кодека : 2000
Продолжительность : 2 ч. 17 м.
Вид битрейта : Постоянный
Битрейт : 192 Кбит/сек
Каналы : 2 канала
Расположение каналов : Front: L R
Частота : 48,0 КГц
Битовая глубина : 16 бит
Метод сжатия : С потерями
Размер потока : 189 Мбайт (13%)
Выравнивание : Соединение по промежуткам
Продолжительность промежутка : 64 мс. (1,53 видеокадра)
Время предзагрузки промежутка : 192 мс.
Заголовок : Профессиональный (двухголосый закадровый)
Скриншоты:
         
       
Вне форума [Профиль] [ЛС]

uschakov.yura

Пол:

Стаж: 4 года 7 месяцев

Сообщений: 740

Откуда: Рыбинск Ярославской области

Торрент-статистика

Пост 29-Май-2013 16:59 (спустя 2 часа 32 минуты)

[Цитировать]

Мне казалось, что каждый знает значение Сталинградской битвы в Великой отечественной войне, многие видели страшные разрухи Сталинграда, а по описанию (смотреть не буду) предлагается по сочувствовать служителям служителям фашизма, фюрера?

_________________
uschakov.yura
Вне форума [Профиль] [ЛС]

naryshev

Пол:

Стаж: 4 года 11 месяцев

Сообщений: 489

Торрент-статистика

Пост 29-Май-2013 17:07 (спустя 7 минут)

[Цитировать]

Немцы сняли фильм о немецких фашистах. Обязательно скачаю и посмотрю.
Вспоминаются слова А. Невского: "Кто к нам с мечом придет, тот от меча и погибнет".
ИХ никто не звал к нам с оружием, сами пришли-сами виноваты. Посмотрю из любопытства "о бедных фашистах"
Вне форума [Профиль] [ЛС]

uschakov.yura

Пол:

Стаж: 4 года 7 месяцев

Сообщений: 740

Откуда: Рыбинск Ярославской области

Торрент-статистика

Пост 29-Май-2013 17:13 (спустя 6 минут)

[Цитировать]

Бедные фашисты только в немецком кино, а сколько бесчисленных бед принесли они в Россию в фильме наверняка не показано

_________________
uschakov.yura
Вне форума [Профиль] [ЛС]

naryshev

Пол:

Стаж: 4 года 11 месяцев

Сообщений: 489

Торрент-статистика

Пост 29-Май-2013 17:24 (спустя 11 минут)

[Цитировать]

uschakov.yura, сто тысяч раз - согласен...
Вне форума [Профиль] [ЛС]
Похожие темы
Форум Тема Автор Торрент Отв. Посл. сообщение
./templates/default/images/folder_dl.gif Фантастика, фэнтези, ужасы, мистика Марченко Игорь - Доменион , Глаза цвета стали часть 1 из 8 [GermanShou, (ЛИ), 2013 г., 64 kbps, MP3] Omen
1 | 0

0 | 192

2

2013-06-17 01:12
Omen Последнее
./templates/default/images/folder_dl.gif Фантастика, фэнтези, ужасы, мистика Марченко Игорь - Тёмная планета 1, ГЛАЗА ЦВЕТА СТАЛИ [German Shou, (ЛИ), 2015 г., ~62 kbps, MP3] Omen
1 | 0

0 | 225

1

2015-03-28 00:01
Omen Последнее
Показать сообщения:    
Ответить на тему

Текущее время: Сегодня 01:17

Часовой пояс: GMT + 3



Вы не можете начинать темы
Вы не можете отвечать на сообщения
Вы не можете редактировать свои сообщения
Вы не можете удалять свои сообщения
Вы не можете голосовать в опросах
Вы не можете прикреплять файлы к сообщениям
Вы не можете скачивать файлы