Сегодня идет свободное скачивание без начисления Download

Любовь императора Франции / Desiree (Генри Костер / Henry Koster) [1954, Драма, Исторический, Биография, BDRip]

Ответить на тему
 
Автор
Сообщение

Koralina ®

Стаж: 5 лет 3 месяца

Сообщений: 1433

Откуда: Lithuania

Торрент-статистика

Пост 29-Май-2013 20:02

[Цитировать]

Любовь императора Франции / Desiree
Русское название: Любовь императора Франции
Оригинальное название: Desiree
Год выпуска: 1954
Страна: США, 20th Century Fox Film Corporation
Режиссер: Генри Костер / Henry Koster
В ролях: Марлон Брандо, Джин Симмонс, Майкл Ренни, Мерл Оберон, Кэмерон Митчелл, Элизабет Селларс, Шарлотта Остин, Кэтлин Несбит, Эвелин Варден, Изобел Элсом, Джон Хойт, Алан Напье, Мэри Стюарт, Свен Хьюго Борг, Питер Борн, Гарри Картер, Ларри Крэйн, Ричард Дикон, Флоренс Даблин, Эдит Эвансон, Сэм Гилман, Кэролин Джонс, Кеннер Дж. Кемп, Кей Катер, Лестер Мэтьюз, Дороти Ньюманн, Виолет Ренсинг, Джо Плоски, Джин Рот, Берт Стивенс
Продолжительность: 01:50:04
Продюсер: Джулиан Блаустин
Сценарий: Дэниэл Тарадаш, Аннемари Селинко
Премьера в мире: 16 ноября 1954
Жанр: Драма, Исторический, Биография
Описание: В этой с размахом поставленной экранизации Марлон Брандо с блеском играет Наполеона, а Джин Симмонс - заглавную роль Дезире, прекрасной возлюбленной великого полководца до того, как он стал императором. Дезире встречает Наполеона Бонапарта еще совсем неизвестным генералом. Они планируют пожениться, но Наполеон едет в Париж и там встречает богатую и влиятельную Жозефину.
Дезире на протяжении всего фильма следит за триумфальным шествием великого Наполеона и то борется за свое чувство, то усмиряет свою страсть к нему, которую так никогда и не воплотит в реальности...
Рейтинг IMDB:
Рейтинг Kinopoisk:
Релиз группа:
Исходник Blu-Ray Remux (1080p)

Контейнер: AVI
Качество видео: BDRip
Видеокодек: Xvid
Аудиокодек: AC3 2 ch
Видео: 720x304 (2.37:1), 23.976 fps, XviD build 65 ~1582 kbps avg, 0.30 bit/pixel
Аудио: 48 kHz, AC3 Dolby Digital, 2/0 (L,R) Surround Encoded ch, ~192 kbps

MediaInfo

Код:
Format : AVI
Format/Info : Audio Video Interleave
File size : 1.37 GiB
Duration : 1h 50mn
Overall bit rate : 1 784 Kbps
Director : CrimeanFox
Writing application : VirtualDubMod 1.5.10.3 | www.virtualdub-fr.org || (build 2550/release)
Writing library : VirtualDub build 32706/release
Copyright : RG.Vanila.films
Video
ID : 0
Format : MPEG-4 Visual
Format profile : Advanced [email protected]
Format settings, BVOP : 2
Format settings, QPel : No
Format settings, GMC : No warppoints
Format settings, Matrix : Default (MPEG)
Codec ID : XVID
Codec ID/Hint : XviD
Duration : 1h 50mn
Bit rate : 1 583 Kbps
Width : 720 pixels
Height : 304 pixels
Display aspect ratio : 2.35:1
Frame rate : 23.976 fps
Color space : YUV
Chroma subsampling : 4:2:0
Bit depth : 8 bits
Scan type : Progressive
Compression mode : Lossy
Bits/(Pixel*Frame) : 0.302
Stream size : 1.22 GiB (89%)
Writing library : XviD 65
Audio
ID : 1
Format : AC-3
Format/Info : Audio Coding 3
Format profile : Dolby Digital
Mode extension : CM (complete main)
Format settings, Endianness : Big
Codec ID : 2000
Duration : 1h 50mn
Bit rate mode : Constant
Bit rate : 192 Kbps
Channel(s) : 2 channels
Channel positions : Front: L R
Sampling rate : 48.0 KHz
Bit depth : 16 bits
Compression mode : Lossy
Stream size : 151 MiB (11%)
Alignment : Split accross interleaves
Interleave, duration : 42 ms (1.00 video frame)
Interleave, preload duration : 500 ms

Скриншоты

         
         

_________________
Вне форума [Профиль] [ЛС]
Похожие темы
Форум Тема Автор Торрент Отв. Посл. сообщение
./templates/default/images/folder_dl.gif Художественная литература Гарсиа Маркес Габриель - Любовь во время чумы [Князев Игорь, 2011 г., 192 kbps, MP3] Omen
1 | 0

0 | 1051

8

2011-10-10 19:53
Omen Последнее
./templates/default/images/folder_dl.gif Фильмы 2011-2016 Последняя любовь на Земле / Perfect Sense (Дэвид МакКензи) [2011 г., драма, мелодрама, DVDRip] Лицензия sassad
1 | 0

0 | 917

26

2011-12-10 20:22
sassad Последнее
./templates/default/images/folder_dl.gif T Фильмы 2001-2010 Выживут только любовники / Only Lovers Left Alive (Джим Джармуш / Jim Jarmusch, 2013, Фантастика, триллер, драма) DVDScr [VO] Omen
1 | 0

0 | 900

18

2014-03-10 18:38
Omen Последнее
./templates/default/images/folder_dl.gif Приключения и квесты Mahjong Detective: The Stolen Love / Маджонг Детектив. Похищенная Любовь [P] [RUS] (2015) Omen
6 | 0

0 | 363

10

2015-06-08 21:00
Omen Последнее
Показать сообщения:    
Ответить на тему

Текущее время: Сегодня 08:51

Часовой пояс: GMT + 3



Вы не можете начинать темы
Вы не можете отвечать на сообщения
Вы не можете редактировать свои сообщения
Вы не можете удалять свои сообщения
Вы не можете голосовать в опросах
Вы не можете прикреплять файлы к сообщениям
Вы не можете скачивать файлы