Сегодня идет свободное скачивание без начисления Download

Любовь и мафия / Sugartime (Джон Н. Смит) (Драма, Мелодрама, Криминал, 1995) DVDRip

Ответить на тему
 
Автор
Сообщение

Omen ®

Стаж: 4 года 1 месяц

Сообщений: 194359

Торрент-статистика

Пост 31-Май-2013 16:54

[Цитировать]

Любовь и мафия
Sugartime
- Русское название: Любовь и мафия
Оригинальное название: Sugartime
Производство: США / Home Box Office (HBO), Pacific Western
Год выпуска: 1995
Жанр: Драма, Мелодрама, Криминал
Описание фильма:
Основано на реальных србытиях. Когда деревья были большими, рок-н-ролл - королем, а Джон Кеннеди - президентом, в те далекие славные дни босс чикагской мафии Сэм Джанкана в одном из казино Лас-Вегаса увидел ослепительную блондинку Филлис МакГуайр. Любовь знаменитой певицы и знаменитого гангстера взбудоражила всю Америку и привела в бешенство самого шефа ФБР Дж. Эдгара Гувера.
Режиссер: Джон Н. Смит
Актеры: Джон Туртурро, Мэри-Луиз Паркер, Элиас Котеас, Мори Чайкин, Луис Дель Гранде, Дебора Дюшен, Ларисса Ласкин, Кристофер Бэрри, Ричард Блэкберн, Аманда Блитц.
Продолжительность: 01:50:39
Перевод: Одноголосый закадровый
Автор перевода: Пётр Карцев

Дата мировой премьеры: 25.11.1995
Качество видео: DVDRip
Видео: 704x400 (1.76:1), 23.976 fps, XviD build 50 ~1492 kbps avg, 0.22 bit/pixel
Аудио 1: 48 kHz, AC3 Dolby Digital, 2/0 (L,R) ch, ~192 kbps - русский
Аудио 2: 48 kHz, AC3 Dolby Digital, 2/0 (L,R) ch, ~192 kbps - английский

MediaInfo

General
Complete name : D:\Public\Sugartime.1995.DVDRip.XviD.avi
Format : AVI
Format/Info : Audio Video Interleave
File size : 1.46 GiB
Duration : 1h 50mn
Overall bit rate : 1 891 Kbps
Writing application : VirtualDubMod 1.5.10.2 (build 2542/release)
Writing library : VirtualDubMod build 2542/release
Video
ID : 0
Format : MPEG-4 Visual
Format profile : Advanced [email protected]
Format settings, BVOP : 1
Format settings, QPel : No
Format settings, GMC : No warppoints
Format settings, Matrix : Default (MPEG)
Codec ID : XVID
Codec ID/Hint : XviD
Duration : 1h 50mn
Bit rate : 1 493 Kbps
Width : 704 pixels
Height : 400 pixels
Display aspect ratio : 16:9
Frame rate : 23.976 fps
Color space : YUV
Chroma subsampling : 4:2:0
Bit depth : 8 bits
Scan type : Progressive
Compression mode : Lossy
Bits/(Pixel*Frame) : 0.221
Stream size : 1.15 GiB (79%)
Writing library : XviD 1.2.1 (UTC 2008-12-04)
Audio #1
ID : 1
Format : AC-3
Format/Info : Audio Coding 3
Mode extension : CM (complete main)
Codec ID : 2000
Duration : 1h 50mn
Bit rate mode : Constant
Bit rate : 192 Kbps
Channel(s) : 2 channels
Channel positions : Front: L R
Sampling rate : 48.0 KHz
Bit depth : 16 bits
Compression mode : Lossy
Stream size : 152 MiB (10%)
Alignment : Split accross interleaves
Interleave, duration : 42 ms (1.00 video frame)
Interleave, preload duration : 500 ms
Audio #2
ID : 2
Format : AC-3
Format/Info : Audio Coding 3
Mode extension : CM (complete main)
Codec ID : 2000
Duration : 1h 50mn
Bit rate mode : Constant
Bit rate : 192 Kbps
Channel(s) : 2 channels
Channel positions : Front: L R
Sampling rate : 48.0 KHz
Bit depth : 16 bits
Compression mode : Lossy
Stream size : 152 MiB (10%)
Alignment : Split accross interleaves
Interleave, duration : 42 ms (1.00 video frame)
Interleave, preload duration : 500 ms
Скриншоты:
         
Вне форума [Профиль] [ЛС]
Похожие темы
Форум Тема Автор Торрент Отв. Посл. сообщение
./templates/default/images/folder_dl.gif Обучающая и научно-популярная литература Димитрий Семеник | Наполни жизнь любовью [2010] [MP3] Omen
1 | 0

0 | 411

1

2013-01-14 21:04
Omen Последнее
./templates/default/images/folder_dl.gif Фильмы 2011-2016 Любовь с первого вздоха (Ольга Ланд) (Комедия, 2013) SATRip Omen
1 | 0

0 | 711

26

2013-05-05 19:58
Omen Последнее
./templates/default/images/folder_dl.gif T Фильмы 2001-2010 Выживут только любовники / Only Lovers Left Alive (Джим Джармуш / Jim Jarmusch, 2013, Фантастика, триллер, драма) DVDScr [VO] Omen
1 | 0

0 | 908

18

2014-03-10 18:38
Omen Последнее
./templates/default/images/folder_dl.gif Приключения и квесты Mahjong Detective: The Stolen Love / Маджонг Детектив. Похищенная Любовь [P] [RUS] (2015) Omen
18 | 0

0 | 370

10

2015-06-08 21:00
Omen Последнее
Показать сообщения:    
Ответить на тему

Текущее время: Сегодня 10:56

Часовой пояс: GMT + 3



Вы не можете начинать темы
Вы не можете отвечать на сообщения
Вы не можете редактировать свои сообщения
Вы не можете удалять свои сообщения
Вы не можете голосовать в опросах
Вы не можете прикреплять файлы к сообщениям
Вы не можете скачивать файлы