Сегодня идет свободное скачивание без начисления Download

Мистер Бин / Bean (Мэл Смит) (Комедия, Семейный, 1997) HDRip [Расширенная версия / Extended Cut]

Ответить на тему
 
Автор
Сообщение

Omen ®

Стаж: 4 года 1 месяц

Сообщений: 194394

Торрент-статистика

Пост 31-Май-2013 16:57

[Цитировать]

Мистер Бин (Расширенная версия)
Bean (Extended Cut)
- Русское название: Мистер Бин (Расширенная версия)
Оригинальное название: Bean (Extended Cut)
Год выпуска: 1997
Жанр: Комедия, Семейный
Описание фильма:
Мистер Бин работает смотрителем в Королевской Британской Галерее. Начальство давно уволило бы его по формулировке «за сон на рабочем месте», если бы не покровительство директора. Вместо этого Бина отправляют в командировку в Лос-Анджелес. Там его принимают за официальное лицо, приехавшее на открытие величайшей выставки США.
Режиссер: Мэл Смит
Актеры: Роуэн Эткинсон, Питер МакНикол, Джон Миллз, Памела Рид, Харрис Юлин, Берт Рейнолдс, Ларри Дрэйк, Дэнни Голдринг, Джонни Галэки, Крис Эллис
Продолжительность: 01:39:20
Перевод: Многоголосый закадровый, со вставками двухголосого на расширенные места

Дата мировой премьеры: 03.07.1997
Дата российской премьеры: 04.07.1997
Дата выхода DVD релиза: 12.04.2011
Видеокодек: Xvid
Битрейт видео: ~2161 kbps avg
Размер кадра: 704x384
Качество видео: HDRip
Аудио #1: 44.100 kHz, MPEG Layer 3, 2 ch, 128.00 kbps avg
Профессиональный (многоголосый закадровый со вставками любительского двухголосого на расширенные места)
Аудио #2: 48 kHz, AC3 Dolby Digital, 2/0 (L,R) ch, 192 kbps
Профессиональный (многоголосый закадровый без перевода на расширенные места)

Extended Cut

Расширенная версия была получена путем врезания удаленных и расширенных сцен на свои места.
Добавленные сцены отличаются по качеству видео от самого фильма.

MediaInfo

Общее
Полное имя : E:\торренты на раздаче\Мистер Бин [расширенная версия].avi
Формат : AVI
Формат/Информация : Audio Video Interleave
Размер файла : 1,73 Гбайт
Продолжительность : 1 ч. 39 м.
Общий поток : 2500 Кбит/сек
Программа кодирования : VirtualDubMod 1.5.10.2 (build 2540/release)
Библиотека кодирования : VirtualDubMod build 2540/release
Видео
Идентификатор : 0
Формат : MPEG-4 Visual
Профиль формата : Advanced [email protected]
Параметр BVOP формата : 2
Параметр QPel формата : Нет
Параметр GMC формата : Без точки перехода
Параметр матрицы формата : Default (H.263)
Режим смешивания : Сжатый битовый поток
Идентификатор кодека : XVID
Идентификатор кодека/Подсказка : XviD
Продолжительность : 1 ч. 39 м.
Битрейт : 2163 Кбит/сек
Ширина : 704 пикселя
Высота : 384 пикселя
Соотношение сторон : 1,85:1
Частота кадров : 29,970 кадров/сек
Цветовое пространство : YUV
Субдискретизация насыщенности : 4:2:0
Битовая глубина : 8 бит
Тип развёртки : Прогрессивная
Метод сжатия : С потерями
Бит/(Пиксели*Кадры) : 0.267
Размер потока : 1,50 Гбайт (87%)
Библиотека кодирования : XviD 64
Аудио #1
Идентификатор : 1
Формат : MPEG Audio
Версия формата : Version 1
Профиль формата : Layer 3
Режим : Joint stereo
Расширение режима : MS Stereo
Идентификатор кодека : 55
Идентификатор кодека/Подсказка : MP3
Продолжительность : 1 ч. 39 м.
Вид битрейта : Постоянный
Битрейт : 128 Кбит/сек
Каналы : 2 канала
Частота : 44,1 КГц
Метод сжатия : С потерями
Размер потока : 91,0 Мбайт (5%)
Выравнивание : Разделение по промежуткам
Продолжительность промежутка : 33 мс. (1,00 видеокадр)
Время предзагрузки промежутка : 500 мс.
Аудио #2
Идентификатор : 2
Формат : AC-3
Формат/Информация : Audio Coding 3
Расширение режима : CM (complete main)
Параметр Endianness формата : Big
Идентификатор кодека : 2000
Продолжительность : 1 ч. 39 м.
Вид битрейта : Постоянный
Битрейт : 192 Кбит/сек
Каналы : 2 канала
Расположение каналов : Front: L R
Частота : 48,0 КГц
Битовая глубина : 16 бит
Метод сжатия : С потерями
Размер потока : 136 Мбайт (8%)
Выравнивание : Соединение по промежуткам
Продолжительность промежутка : 33 мс. (1,00 видеокадр)
Время предзагрузки промежутка : 512 мс.
Скриншоты:
       
Вне форума [Профиль] [ЛС]
Показать сообщения:    
Ответить на тему

Текущее время: Сегодня 02:55

Часовой пояс: GMT + 3



Вы не можете начинать темы
Вы не можете отвечать на сообщения
Вы не можете редактировать свои сообщения
Вы не можете удалять свои сообщения
Вы не можете голосовать в опросах
Вы не можете прикреплять файлы к сообщениям
Вы не можете скачивать файлы