Сегодня идет свободное скачивание без начисления Download

Два мула для сестры Сары / Two Mules for Sister Sara (Дон Сигел / Don Siegel) [1970, Вестерн, Приключения, BDRip 720p]

Ответить на тему
 
Автор
Сообщение

Koralina ®

Стаж: 5 лет 3 месяца

Сообщений: 1433

Откуда: Lithuania

Торрент-статистика

Пост 31-Май-2013 20:58

[Цитировать]

Два мула для сестры Сары / Two Mules for Sister Sara
Русское название: Два мула для сестры Сары
Оригинальное название: Two Mules for Sister Sara
Страна: США, Мексика
Год выпуска: 1970
Режиссер: Дон Сигел / Don Siegel
В ролях: Ширли МакЛейн, Клинт Иствуд, Мануэл Фабрегас, Альберто Морин, Армандо Силвестри, Джон Келли, Энрике Лусеро, Дэвид Эстуардо, Ада Карраско, Панчо Кордов
Продолжительность: 01:53:40
Продюсер: Кэрролл Кейс, Мартин Рэкин
Сценарий: Альберт Мальц, Бадд Боттичер
Премьера в мире: 12 февраля 1970
Жанр: Вестерн, Приключения
Описание: Вестерн о человеке без имени, охотнике за удачей, который помогает монахине избежать смертельных опасностей при переходе через мексиканскую пустыню.Она оказывается вовсе не той за кого себя выдает. В пути герои примыкают к повстанцем и у них созревает план совместно захватить французский форт. Повстанцы борются за свободу, а наш герой преследует только одну цель золото
Рейтинг MPAA: PG - Рекомендуется присутствие родителей
Рейтинг IMDB:
Рейтинг Kinopoisk:

Релиз группа:
Исходник Blu-ray disc
Качество: BDRip 720p
Контейнер: MKV
Формат видео: H.264
Формат аудио: AC3 / DTC
Видео: 1280х576, 2.222, 23.976 fps, H.264, 6 000 Kbps, 0.339 bit/pixel
Аудио 1: 48.0 KHz, DTS, 2 ch, 448 Kbps avg, 24 bits (русский)
Аудио 2: 48.0 KHz, AC3, 2ch,192 Kbps avg, 16 bits (английский)

Медиаинфо

Код:
Format : Matroska
Format version : Version 2
File size : 5.27 GiB
Duration : 1h 53mn
Overall bit rate : 6 642 Kbps
Movie name : CrimeanFox
Encoded date : UTC 2013-05-31 10:38:03
Writing application : mkvmerge v4.0.0 ('The Stars were mine') сборка от Jun 6 2010 16:18:42
Writing library : libebml v1.0.0 + libmatroska v1.0.0
Video
ID : 1
Format : AVC
Format/Info : Advanced Video Codec
Format profile : [email protected]
Format settings, CABAC : Yes
Format settings, ReFrames : 5 frames
Codec ID : V_MPEG4/ISO/AVC
Duration : 1h 53mn
Bit rate : 6 000 Kbps
Width : 1 280 pixels
Height : 576 pixels
Display aspect ratio : 2.222
Frame rate : 23.976 fps
Color space : YUV
Chroma subsampling : 4:2:0
Bit depth : 8 bits
Scan type : Progressive
Bits/(Pixel*Frame) : 0.339
Stream size : 4.66 GiB (88%)
Title : CrimeanFox
Writing library : x264 core 125 r2200 999b753
Encoding settings : cabac=1 / ref=5 / deblock=1:-1:-1 / analyse=0x3:0x133 / me=umh / subme=8 / psy=1 / psy_rd=1.00:0.15 / mixed_ref=1 / me_range=16 / chroma_me=0 / trellis=2 / 8x8dct=1 / cqm=0 / deadzone=21,11 / fast_pskip=1 / chroma_qp_offset=-3 / threads=3 / lookahead_threads=1 / sliced_threads=0 / nr=0 / decimate=1 / interlaced=0 / bluray_compat=0 / constrained_intra=0 / bframes=3 / b_pyramid=2 / b_adapt=2 / b_bias=0 / direct=3 / weightb=1 / open_gop=0 / weightp=2 / keyint=250 / keyint_min=25 / scenecut=40 / intra_refresh=0 / rc_lookahead=50 / rc=2pass / mbtree=1 / bitrate=6000 / ratetol=1.0 / qcomp=0.60 / qpmin=10 / qpmax=51 / qpstep=4 / cplxblur=20.0 / qblur=0.5 / ip_ratio=1.40 / aq=1:1.00
Default : Yes
Forced : Yes
Audio #1
ID : 2
Format : DTS
Format/Info : Digital Theater Systems
Codec ID : A_DTS
Duration : 1h 53mn
Bit rate mode : Constant
Bit rate : 448 Kbps
Channel(s) : 2 channels
Channel positions : Front: L R
Sampling rate : 48.0 KHz
Bit depth : 24 bits
Compression mode : Lossy
Delay relative to video : 11ms
Stream size : 364 MiB (7%)
Default : No
Forced : No
Audio #2
ID : 3
Format : AC-3
Format/Info : Audio Coding 3
Mode extension : CM (complete main)
Format settings, Endianness : Big
Codec ID : A_AC3
Duration : 1h 53mn
Bit rate mode : Constant
Bit rate : 192 Kbps
Channel(s) : 2 channels
Channel positions : Front: L R
Sampling rate : 48.0 KHz
Bit depth : 16 bits
Compression mode : Lossy
Stream size : 156 MiB (3%)
Default : No
Forced : No

Скриншоты

         
         

_________________
Вне форума [Профиль] [ЛС]
Показать сообщения:    
Ответить на тему

Текущее время: Сегодня 13:28

Часовой пояс: GMT + 3



Вы не можете начинать темы
Вы не можете отвечать на сообщения
Вы не можете редактировать свои сообщения
Вы не можете удалять свои сообщения
Вы не можете голосовать в опросах
Вы не можете прикреплять файлы к сообщениям
Вы не можете скачивать файлы