Сегодня идет свободное скачивание без начисления Download

Два мула для сестры Сары / Two Mules for Sister Sara (1970) [720p] HDTVRip

Ответить на тему
 
Автор
Сообщение

UndegraundMen ®

Стаж: 3 года 9 месяцев

Сообщений: 28329

Торрент-статистика

Пост 01-Июн-2013 03:00

[Цитировать]

Два мула для сестры Сары / Two Mules for Sister Sara (1970) HDTVRip-«CLINT EASTWOOD...the deadliest man alive...takes on a whole army with two guns and a fistful of dynamite!»
Русское название: Два мула для сестры Сары
Оригинальное название: Two Mules for Sister Sara
Год выпуска: 1970
Жанр: Вестерн, Приключения
Описание фильма:
Вестерн о человеке без имени, охотнике за удачей, который помогает монахине избежать смертельных опасностей при переходе через мексиканскую пустыню. Она оказывается вовсе не той за кого себя выдает. В пути герои примыкают к повстанцем и у них созревает план совместно захватить французский форт. Повстанцы борются за свободу, а наш герой преследует только одну цель — золото…
Режиссер: Дон Сигел
Актеры: Ширли МакЛейн, Клинт Иствуд, Мануэл Фабрегас, Альберто Морин, Армандо Силвестри, Джон Келли, Энрике Лусеро, Дэвид Эстуардо, Ада Карраско, Панчо Кордова, Хосе Чавес, Хосе Анхел Эспиноса, Роса Фурман, Педро Гальван, Маргарито Луна, Ксавьер Марк, Хавьер Массе, Аврора Муньос, Ортенсия Сантовенья
Продолжительность: 01:53:51
Перевод1: Профессиональный двухголосый
Перевод2: Многоголосый закадровый
Язык субтитров: Русские, английские
Вид субтитров: Вшитые

Дата мировой премьеры: 12 февраля 1970

Видеокодек: MPEG-4 AVC/H.264
Битрейт видео: ~9600 Кбит/с
Размер кадра: 1280x546
Качество видео: HDTVRip
Аудио1: AC3 Русский 2.0 / 48 kHz / 192 kbps / 16-bit Профессиональный двухголосый
Аудио2: AC3 Русский 2.0 / 48 kHz / 192 kbps / 16-bit Многоголосый закадровый
Аудио3: AC3 Английский 6ch / 48 kHz / 384 kbps / 16-bit Оригинал
Сэмпл: Ссылка

MediaInfo

Общее
Уникальный идентификатор : 229866919830948983308484486785266805373 (0xACEEC22754D215B2B0CB4B996EE2EA7D)
Полное имя : C:\Xvid4PSP\Two.Mules.for.Sister.Sara.1970.720p.HDTVRip.mkv
Формат : Matroska
Версия формата : Version 4 / Version 2
Размер файла : 8,25 Гбайт
Продолжительность : 1 ч. 53 м.
Общий поток : 10,4 Мбит/сек
Дата кодирования : UTC 2013-05-30 09:51:33
Программа кодирования : mkvmerge v6.2.0 ('Promised Land') built on Apr 28 2013 12:22:01
Библиотека кодирования : libebml v1.3.0 + libmatroska v1.4.0
Attachment : Yes
Видео
Идентификатор : 1
Формат : AVC
Формат/Информация : Advanced Video Codec
Профиль формата : [url=mailto:[email protected]][email protected][/url]
Параметр CABAC формата : Да
Параметр ReFrames формата : 9 кадров
Идентификатор кодека : V_MPEG4/ISO/AVC
Продолжительность : 1 ч. 53 м.
Битрейт : 9600 Кбит/сек
Ширина : 1280 пикселей
Высота : 546 пикселей
Соотношение сторон : 2,35:1
Режим частоты кадров : Постоянный
Частота кадров : 23,976 кадра/сек
Цветовое пространство : YUV
Субдискретизация насыщенности : 4:2:0
Битовая глубина : 8 бит
Тип развёртки : Прогрессивная
Бит/(Пиксели*Кадры) : 0.573
Размер потока : 7,47 Гбайт (91%)
Библиотека кодирования : x264 core 114 r1924 08d04a4
Настройки программы : cabac=1 / ref=9 / deblock=1:0:0 / analyse=0x3:0x133 / me=esa / subme=10 / psy=1 / psy_rd=1.00:0.00 / mixed_ref=1 / me_range=32 / chroma_me=1 / trellis=2 / 8x8dct=1 / cqm=0 / deadzone=21,11 / fast_pskip=0 / chroma_qp_offset=-2 / threads=3 / sliced_threads=0 / nr=0 / decimate=0 / interlaced=0 / constrained_intra=0 / bframes=9 / b_pyramid=2 / b_adapt=2 / b_bias=0 / direct=1 / weightb=1 / open_gop=0 / weightp=2 / keyint=250 / keyint_min=23 / scenecut=40 / intra_refresh=0 / rc_lookahead=40 / rc=2pass / mbtree=1 / bitrate=9600 / ratetol=1.0 / qcomp=0.60 / qpmin=0 / qpmax=69 / qpstep=4 / cplxblur=20.0 / qblur=0.5 / vbv_maxrate=50000 / vbv_bufsize=50000 / nal_hrd=none / ip_ratio=1.40 / aq=1:1.00
Язык : English
Default : Да
Forced : Нет
Аудио #1
Идентификатор : 2
Формат : AC-3
Формат/Информация : Audio Coding 3
Расширение режима : CM (complete main)
Параметр Endianness формата : Big
Идентификатор кодека : A_AC3
Продолжительность : 1 ч. 53 м.
Вид битрейта : Постоянный
Битрейт : 192 Кбит/сек
Каналы : 2 канала
Расположение каналов : Front: L R
Частота : 48,0 КГц
Битовая глубина : 16 бит
Метод сжатия : С потерями
Размер потока : 156 Мбайт (2%)
Заголовок : DVO Лицензия
Язык : Russian
Default : Да
Forced : Нет
Аудио #2
Идентификатор : 3
Формат : AC-3
Формат/Информация : Audio Coding 3
Расширение режима : CM (complete main)
Параметр Endianness формата : Big
Идентификатор кодека : A_AC3
Продолжительность : 1 ч. 53 м.
Вид битрейта : Постоянный
Битрейт : 192 Кбит/сек
Каналы : 2 канала
Расположение каналов : Front: L R
Частота : 48,0 КГц
Битовая глубина : 16 бит
Метод сжатия : С потерями
Размер потока : 156 Мбайт (2%)
Заголовок : MVO
Язык : Russian
Default : Нет
Forced : Нет
Аудио #3
Идентификатор : 4
Формат : AC-3
Формат/Информация : Audio Coding 3
Расширение режима : CM (complete main)
Параметр Endianness формата : Big
Идентификатор кодека : A_AC3
Продолжительность : 1 ч. 53 м.
Вид битрейта : Постоянный
Битрейт : 384 Кбит/сек
Каналы : 6 каналов
Расположение каналов : Front: L C R, Side: L R, LFE
Частота : 48,0 КГц
Битовая глубина : 16 бит
Метод сжатия : С потерями
Размер потока : 313 Мбайт (4%)
Заголовок : ENG
Язык : English
Default : Нет
Forced : Нет
Текст #1
Идентификатор : 5
Формат : UTF-8
Идентификатор кодека : S_TEXT/UTF8
Идентификатор кодека/Информация : UTF-8 Plain Text
Заголовок : Лицензия
Язык : Russian
Default : Нет
Forced : Нет
Текст #2
Идентификатор : 6
Формат : UTF-8
Идентификатор кодека : S_TEXT/UTF8
Идентификатор кодека/Информация : UTF-8 Plain Text
Язык : Russian
Default : Нет
Forced : Нет
Текст #3
Идентификатор : 7
Формат : UTF-8
Идентификатор кодека : S_TEXT/UTF8
Идентификатор кодека/Информация : UTF-8 Plain Text
Заголовок : SDH
Язык : English
Default : Нет
Forced : Нет
Меню
00:00:00.000 : en:Main Titles
00:04:13.545 : en:A Nun Among Killers
00:12:45.181 : en:The Fugitive Nun
00:16:12.221 : en:Hiding From The French
00:21:06.223 : en:Rattlesnake For Dinner
00:26:34.593 : en:Not The Marrying Kind
00:34:09.047 : en:Los Pobrecitos
00:40:01.733 : en:The Dying Colonel
00:44:14.944 : en:Yaquis
00:46:51.434 : en:Removing The Arrow
00:57:30.280 : en:The Train Trestle
01:05:55.285 : en:El Gato Negro
01:11:17.565 : en:Colonel Beltran
01:24:35.988 : en:The French Garrison
01:31:02.999 : en:The Real Sara
01:37:57.080 : en:A Gift For The French
01:43:34.792 : en:The Uprising
01:51:13.166 : en:Hogan's Girl
Скриншоты:
         
Время раздачи: 24/7
Вне форума [Профиль] [ЛС]
Показать сообщения:    
Ответить на тему

Текущее время: Сегодня 15:10

Часовой пояс: GMT + 3



Вы не можете начинать темы
Вы не можете отвечать на сообщения
Вы не можете редактировать свои сообщения
Вы не можете удалять свои сообщения
Вы не можете голосовать в опросах
Вы не можете прикреплять файлы к сообщениям
Вы не можете скачивать файлы