Сегодня идет свободное скачивание без начисления Download

Два мула для сестры Сары / Two Mules for Sister Sara (1970) BDRip

Ответить на тему
 
Автор
Сообщение

Koralina ®

Стаж: 5 лет 3 месяца

Сообщений: 1433

Откуда: Lithuania

Торрент-статистика

Пост 01-Июн-2013 12:45

[Цитировать]

Два мула для сестры Сары / Two Mules for Sister Sara - Русское название: Два мула для сестры Сары
Оригинальное название: Two Mules for Sister Sara
Год выпуска: 1970
Жанр: Вестерн, Приключения
Страна: США, Мексика
Описание фильма:
Вестерн о человеке без имени, охотнике за удачей, который помогает монахине избежать смертельных опасностей при переходе через мексиканскую пустыню.
Она оказывается вовсе не той за кого себя выдает. В пути герои примыкают к повстанцем и у них созревает план совместно захватить французский форт. Повстанцы борются за свободу, а наш герой преследует только одну цель - золото…
Режиссер: Дон Сигел / Don Siegel
Актеры: Ширли МакЛейн, Клинт Иствуд, Мануэл Фабрегас, Альберто Морин, Армандо Силвестри, Джон Келли, Энрике Лусеро, Дэвид Эстуардо, Ада Карраско, Панчо Кордова, Хосе Чавес, Хосе Анхел Эспиноса, Роса Фурман, Педро Гальван, Маргарито Луна, Ксавьер Марк, Хавьер Массе, Аврора Муньос, Ортенсия Сантовенья
Продолжительность: 01:53:40
Перевод: Профессиональный (двухголосый закадровый)

Дата мировой премьеры: 12 февраля 1970
Видеокодек: Xvid
Битрейт видео: ~1 637 Kbps
Размер кадра: 720х320
Качество видео: BDRip
Аудиокодек: AC3 2.0
Битрейт аудио: 192 Kbps
Релиз группа:
Исходник Blu-ray disc

Медиаинфо

Format : AVI
Format/Info : Audio Video Interleave
File size : 1.46 GiB
Duration : 1h 53mn
Overall bit rate : 1 838 Kbps
Director : CrimeanFox
Writing application : VirtualDubMod 1.5.10.3 | www.virtualdub-fr.org || (build 2550/release)
Writing library : VirtualDub build 32706/release
Copyright : RG.Vanila.films
Video
ID : 0
Format : MPEG-4 Visual
Format profile : Advanced [email protected]
Format settings, BVOP : 2
Format settings, QPel : No
Format settings, GMC : No warppoints
Format settings, Matrix : Default (MPEG)
Codec ID : XVID
Codec ID/Hint : XviD
Duration : 1h 53mn
Bit rate : 1 637 Kbps
Width : 720 pixels
Height : 320 pixels
Display aspect ratio : 2.25:1
Frame rate : 23.976 fps
Color space : YUV
Chroma subsampling : 4:2:0
Bit depth : 8 bits
Scan type : Progressive
Compression mode : Lossy
Bits/(Pixel*Frame) : 0.296
Stream size : 1.30 GiB (89%)
Writing library : XviD 65
Audio
ID : 1
Format : AC-3
Format/Info : Audio Coding 3
Mode extension : CM (complete main)
Format settings, Endianness : Big
Codec ID : 2000
Duration : 1h 53mn
Bit rate mode : Constant
Bit rate : 192 Kbps
Channel(s) : 2 channels
Channel positions : Front: L R
Sampling rate : 48.0 KHz
Bit depth : 16 bits
Compression mode : Lossy
Stream size : 156 MiB (10%)
Alignment : Split accross interleaves
Interleave, duration : 42 ms (1.00 video frame)
Interleave, preload duration : 500 ms
Скриншоты:
         
         

_________________
Вне форума [Профиль] [ЛС]
Показать сообщения:    
Ответить на тему

Текущее время: Сегодня 01:18

Часовой пояс: GMT + 3



Вы не можете начинать темы
Вы не можете отвечать на сообщения
Вы не можете редактировать свои сообщения
Вы не можете удалять свои сообщения
Вы не можете голосовать в опросах
Вы не можете прикреплять файлы к сообщениям
Вы не можете скачивать файлы