Сегодня идет свободное скачивание без начисления Download

Левиафан / Leviathan (Джордж Пан Косматос) (Ужасы, Фантастика, Приключения, 1989) HDTVRip

Ответить на тему
 
Автор
Сообщение

Omen ®

Стаж: 4 года 1 месяц

Сообщений: 194359

Торрент-статистика

Пост 01-Июн-2013 13:04

[Цитировать]

Левиафан / Leviathan - Русское название: Левиафан
Оригинальное название: Leviathan
Год выпуска: 1989
Производство: США, Италия
Жанр: Ужасы, Фантастика, Приключения
Описание фильма:
Во время вахтенных работ по добыче руды на пятикилометровой глубине в Атлантике один из техников находит затонувшее русское судно. Вскоре выясняется, что на судне велись секретные эксперименты.
В сейфе, принесенном из корабля на подводную базу шахтеров, находятся записи о таинственной болезни, поразившей весь экипаж корабля. Вскоре один из шахтеров умирает и мутирует в жуткое чудовище, которое начинает уничтожать все живое на своем пути…

Режиссер: Джордж Пан Косматос
Актеры: Питер Уэллер, Ричард Кренна, Аманда Пэйс, Дэниел Стерн, Эрни Хадсон, Майкл Кармине, Лиза Айлбакер, Гектор Элизондо, Мег Фостер, Юджин Липински
Продолжительность: 01:37:56
Перевод: Одноголосый закадровый
Автор перевода: Гаврилов
Язык субтитров: Отсутствуют
Дата мировой премьеры: 17 марта 1989
Видеокодек: Xvid
Битрейт видео: ~927 kbps avg
Размер кадра: 656x368
Качество видео: HDTVRip
Аудиокодек: MP3 2ch
Битрейт аудио: ~128.00 kbps avg

MediaInfo

Общее
Полное имя : D:\Торренты на раздачу\Левиафан\Leviathan.avi
Формат : AVI
Формат/Информация : Audio Video Interleave
Размер файла : 746 Мбайт
Продолжительность : 1 ч. 37 м.
Общий поток : 1065 Кбит/сек
Название фильма : Leviathan.745
Режиссёр : Шкод@
Программа кодирования : VirtualDubMod 1.5.10.2 (build 2540/release)
Примечание : Groop All Films
Видео
Идентификатор : 0
Формат : MPEG-4 Visual
Профиль формата : Advanced [email protected]
Параметр BVOP формата : 1
Параметр QPel формата : Нет
Параметр GMC формата : Без точки перехода
Параметр матрицы формата : Default (MPEG)
Идентификатор кодека : XVID
Идентификатор кодека/Подсказка : XviD
Продолжительность : 1 ч. 37 м.
Битрейт : 927 Кбит/сек
Ширина : 656 пикселей
Высота : 368 пикселей
Соотношение сторон : 16:9
Частота кадров : 23,976 кадра/сек
Цветовое пространство : YUV
Субдискретизация насыщенности : 4:2:0
Битовая глубина : 8 бит
Тип развёртки : Прогрессивная
Метод сжатия : С потерями
Бит/(Пиксели*Кадры) : 0.160
Размер потока : 650 Мбайт (87%)
Библиотека кодирования : XviD 1.2.1 (UTC 2008-12-04)
Аудио
Идентификатор : 1
Формат : MPEG Audio
Версия формата : Version 1
Профиль формата : Layer 3
Идентификатор кодека : 55
Идентификатор кодека/Подсказка : MP3
Продолжительность : 1 ч. 37 м.
Вид битрейта : Постоянный
Битрейт : 128 Кбит/сек
Каналы : 2 канала
Частота : 48,0 КГц
Метод сжатия : С потерями
Размер потока : 89,7 Мбайт (12%)
Выравнивание : Соединение по промежуткам
Продолжительность промежутка : 42 мс. (1,00 видеокадр)
Время предзагрузки промежутка : 504 мс.
Библиотека кодирования : LAME3.98r
Настройки программы : -m s -V 4 -q 2 -lowpass 17 -b 128
Скриншоты:
         
Вне форума [Профиль] [ЛС]
Показать сообщения:    
Ответить на тему

Текущее время: Сегодня 05:10

Часовой пояс: GMT + 3



Вы не можете начинать темы
Вы не можете отвечать на сообщения
Вы не можете редактировать свои сообщения
Вы не можете удалять свои сообщения
Вы не можете голосовать в опросах
Вы не можете прикреплять файлы к сообщениям
Вы не можете скачивать файлы