Сегодня идет свободное скачивание без начисления Download

Военный фургон / The War Wagon (Берт Кеннеди) (Боевик, Вестерн, 1967) DVDRip [H.264]

Ответить на тему
 
Автор
Сообщение

Omen ®

Стаж: 5 лет

Сообщений: 190530

Торрент-статистика

Пост 01-Июн-2013 16:10

[Цитировать]

Военный фургон / The War Wagon -«The War Wagon Rolls And The Screen Explodes!»- Русское название: Военный фургон
Оригинальное название: The War Wagon
Год выпуска: 1967
Жанр: Боевик, Вестерн
Страна: США
Производство: Batjac Productions, Marvin Schwartz Productions Inc., Universal Pictures
Описание фильма:
Джон Уэйн играет владельца ранчо Тау Джексона, который хочет сеять смерть при попытке взятия бронированного почтового дилижанса принадлежащего местному «барону» среди скотоводов, который украл все его состояние и облил грязью доброе имя.
Чтобы совершить это ограбление Джексон объединяется в команду со старым актером, полуобразованным индейцем, молодым пьяницей и великолепным стрелком. Получится ли у них?…
Режиссер: Берт Кеннеди
Сценарий: Клэр Хаффакер
Продюсер: Марвин Шварц
Актеры: Джон Уэйн, Кирк Дуглас, Ховард Кил, Роберт Уокер мл., Кинен Уинн, Брюс Кэбот, Джоэнна Барнс, Валона Ноланд, Брюс Дерн, Джин Эванс
Продолжительность: 01:36:33
Перевод: Многоголосый закадровый (СТС, 1999 год)
Субтитры: Отсутствуют

Дата мировой премьеры: 27 мая 1967
Видеокодек: MPEG-4 AVC/H.264
Битрейт видео: ~2251 Кбит/сек
Размер кадра: 720x304
Качество видео: DVDRip
Аудиокодек: AC3 2.0
Битрейт аудио: 192 kbps

MediaInfo:

General
Unique ID : 190661110824699877628571281993935112369 (0x8F6FFE879C1FF0B78F7AC3BF818448B1)
Complete name : H:\Downloads\Военный фургон.mkv
Format : Matroska
Format version : Version 4 / Version 2
File size : 1.65 GiB
Duration : 1h 36mn
Overall bit rate : 2 445 Kbps
Encoded date : UTC 2013-06-01 04:12:20
Writing application : mkvmerge v6.0.0 ('Coming Up For Air') built on Jan 20 2013 09:52:00
Writing library : libebml v1.3.0 + libmatroska v1.4.0
Video
ID : 1
Format : AVC
Format/Info : Advanced Video Codec
Format profile : [url=mailto:[email protected]][email protected][/url]
Format settings, CABAC : Yes
Format settings, ReFrames : 8 frames
Codec ID : V_MPEG4/ISO/AVC
Duration : 1h 36mn
Bit rate : 2 251 Kbps
Width : 720 pixels
Height : 304 pixels
Display aspect ratio : 2.35:1
Frame rate mode : Constant
Frame rate : 25.000 fps
Color space : YUV
Chroma subsampling : 4:2:0
Bit depth : 8 bits
Scan type : Progressive
Bits/(Pixel*Frame) : 0.411
Stream size : 1.49 GiB (90%)
Title : The War Wagon
Writing library : x264 core 125 r2208 d9d2288
Encoding settings : cabac=1 / ref=8 / deblock=1:-1:-1 / analyse=0x3:0x133 / me=umh / subme=9 / psy=1 / psy_rd=1.00:0.10 / mixed_ref=1 / me_range=32 / chroma_me=1 / trellis=2 / 8x8dct=1 / cqm=0 / deadzone=21,11 / fast_pskip=0 / chroma_qp_offset=-3 / threads=6 / lookahead_threads=1 / sliced_threads=0 / nr=0 / decimate=1 / interlaced=0 / bluray_compat=0 / constrained_intra=0 / bframes=3 / b_pyramid=2 / b_adapt=2 / b_bias=0 / direct=3 / weightb=1 / open_gop=0 / weightp=2 / keyint=250 / keyint_min=25 / scenecut=40 / intra_refresh=0 / rc_lookahead=60 / rc=2pass / mbtree=1 / bitrate=2251 / ratetol=1.0 / qcomp=0.60 / qpmin=10 / qpmax=51 / qpstep=4 / cplxblur=20.0 / qblur=0.5 / ip_ratio=1.40 / aq=1:1.00
Language : English
Default : Yes
Forced : No
Audio
ID : 2
Format : AC-3
Format/Info : Audio Coding 3
Mode extension : CM (complete main)
Format settings, Endianness : Big
Codec ID : A_AC3
Duration : 1h 36mn
Bit rate mode : Constant
Bit rate : 192 Kbps
Channel(s) : 2 channels
Channel positions : Front: L R
Sampling rate : 48.0 KHz
Bit depth : 16 bits
Compression mode : Lossy
Stream size : 133 MiB (8%)
Title : Многоголосый
Language : Russian
Default : Yes
Forced : No
Скриншоты:                    
Вне форума [Профиль] [ЛС]
Похожие темы
Форум Тема Автор Торрент Отв. Посл. сообщение
./templates/default/images/folder_dl.gif Фильмы до 2000 года А зори здесь тихие (Станислав Ростоцкий, 1972) [Полная широкоэкранная версия] (Драма, Военный, История) DVDRip Omen
1 | 0

1 | 1261

19

2013-05-09 18:34
aleksart Последнее
./templates/default/images/folder_dl.gif Программы [Android] Советские военные карты PRO (v3.0.4) [2015. Навигация/Карты для Android, Rus/Multi] O.S.A.
1 | 0

0 | 1152

10

2015-09-17 22:04
O.S.A. Последнее
./templates/default/images/folder_dl.gif Отечественные cериалы Операция «Горгона» / Серии: 1-4 из 4 (Владимир Котт) [2011, боевик, драма, военный, WEBRip (1080p)] Omen
1 | 0

0 | 588

4

2016-08-18 01:00
Omen Последнее
./templates/default/images/folder_dl.gif Сатира, Юмор Валерий Шамбаров (сост.) | Армия шутит. Антология военного юмора (2017) [FB2] }{@R0N
1 | 0

0 | 8226

5

2017-09-19 14:59
}{@R0N Последнее
Показать сообщения:    
Ответить на тему

Текущее время: Сегодня 13:40

Часовой пояс: GMT + 3



Вы не можете начинать темы
Вы не можете отвечать на сообщения
Вы не можете редактировать свои сообщения
Вы не можете удалять свои сообщения
Вы не можете голосовать в опросах
Вы не можете прикреплять файлы к сообщениям
Вы не можете скачивать файлы