Сегодня идет свободное скачивание без начисления Download

Невезучие / La chèvre (Франсис Вебер / Francis Veber) (Комедия, Криминал, Приключения, 1981) [H.264] DVDRip

Ответить на тему
 
Автор
Сообщение

Omen ®

Стаж: 4 года 1 месяц

Сообщений: 194394

Торрент-статистика

Пост 01-Июн-2013 19:12

[Цитировать]

Невезучие / La chèvre- Русское название: Невезучие
Оригинальное название: La chèvre
Год выпуска: 1981
Жанр: Комедия, Криминал, Приключения
Страна: Франция, Мексика, Мальта
Описание: Существует тип людей, страдающих хроническим невезением. Они опаздывают на поезда, проливают красное вино на белую одежду, на них падают кирпичи. Единственная дочь миллионера Мари, как раз из таких. Не повезло ей в очередной раз — пропала где-то в Латинской Америке. Папаша поручает поиски первоклассному сыщику, который, в свою очередь, решает пойти нетрадиционным путем. Он находит такого же невезучего человека. Расчет прост — один невезучий должен «вывести» на другого.-Режиссер: Франсис Вебер / Francis Veber
Актеры: Пьер Ришар / (Pierre Richard), Жерар Депардье / (Gérard Depardieu), Педро Армендарис мл. / (Pedro Armendáriz Jr.), Коринн Шарби / (Corynne Charbit), Марица Оливарес / (Maritza Olivares), Андре Валарди / (André Valardy), Хорхе Луке / (Jorge Luke), Серхио Кальдерон / (Sergio Calderón)-Продолжительность: 01:29:47
Перевод: Профессиональный многоголосый, Дублированный (МосФильм).
Субтитры: Отсутствуют

Премьера (мир): 9 декабря 1981
Релиз DVD: 26 апреля 2012
Релиз Blu-ray: неизвестно-Видеокодек: MPEG-4 AVC/H.264
Битрейт видео: 1904 kbps
Размер кадра: 672x576
Качество: DVDRip
Аудио#1: AC3, 192 kbps, 2 ch, 48.0 kHz - Русский
Аудио#2: AC3, 96 kbps, 1 ch, 48.0 kHz - Русский (МосФильм)
Аудио#3: AC3, 128 kbps, 2 ch, 48.0 kHz - Французский

MediaInfo

Код:
General
Unique ID                                : 192613471218926784481402346270432905705 (0x90E801543764D2DE80DF5DAC18BF49E9)
Format                                   : Matroska
Format version                           : Version 1
File size                                : 1.46 GiB
Duration                                 : 1h 29mn
Overall bit rate                         : 2 324 Kbps
Encoded date                             : UTC 2008-05-15 08:48:33
Writing application                      : mkvmerge v2.2.0 ('Turn It On Again') built on Mar  4 2008 12:58:26
Writing library                          : libebml v0.7.7 + libmatroska v0.8.1
Video
ID                                       : 1
Format                                   : AVC
Format/Info                              : Advanced Video Codec
Format profile                           : [email protected]
Format settings, CABAC                   : Yes
Format settings, ReFrames                : 5 frames
Codec ID                                 : V_MPEG4/ISO/AVC
Duration                                 : 1h 29mn
Bit rate                                 : 1 904 Kbps
Width                                    : 672 pixels
Height                                   : 576 pixels
Display aspect ratio                     : 1.667
Original display aspect ratio            : 1.167
Frame rate mode                          : Constant
Frame rate                               : 25.000 fps
Color space                              : YUV
Chroma subsampling                       : 4:2:0
Bit depth                                : 8 bits
Scan type                                : Progressive
Bits/(Pixel*Frame)                       : 0.197
Stream size                              : 1.17 GiB (80%)
Writing library                          : x264 core 59 r839M 27c3071
Encoding settings                        : cabac=1 / ref=5 / deblock=1:-2:-2 / analyse=0x3:0x133 / me=umh / subme=7 / me-prepass=0 / brdo=1 / mixed_ref=1 / me_range=32 / chroma_me=1 / trellis=2 / 8x8dct=1 / cqm=0 / deadzone=21,11 / chroma_qp_offset=0 / threads=3 / nr=0 / decimate=0 / mbaff=0 / fgo=0 / bframes=5 / b_pyramid=1 / b_adapt=1 / b_bias=0 / direct=3 / wpredb=1 / bime=1 / keyint=250 / keyint_min=25 / scenecut=40(pre) / rc=2pass / bitrate=1904 / ratetol=1.0 / rceq='blurCplx^(1-qComp)' / qcomp=1.00 / qpmin=10 / qpmax=51 / qpstep=4 / cplxblur=20.0 / qblur=0.5 / ip_ratio=1.40 / pb_ratio=1.30 / aq=2:1.00
Default                                  : Yes
Forced                                   : No
Audio #1
ID                                       : 2
Format                                   : AC-3
Format/Info                              : Audio Coding 3
Mode extension                           : CM (complete main)
Format settings, Endianness              : Big
Codec ID                                 : A_AC3
Duration                                 : 1h 29mn
Bit rate mode                            : Constant
Bit rate                                 : 192 Kbps
Channel(s)                               : 2 channels
Channel positions                        : Front: L R
Sampling rate                            : 48.0 KHz
Bit depth                                : 16 bits
Compression mode                         : Lossy
Stream size                              : 123 MiB (8%)
Title                                    : Многоголосый, закадровый
Language                                 : Russian
Default                                  : Yes
Forced                                   : No
Audio #2
ID                                       : 3
Format                                   : AC-3
Format/Info                              : Audio Coding 3
Mode extension                           : CM (complete main)
Format settings, Endianness              : Big
Codec ID                                 : A_AC3
Duration                                 : 1h 29mn
Bit rate mode                            : Constant
Bit rate                                 : 96.0 Kbps
Channel(s)                               : 1 channel
Channel positions                        : Front: C
Sampling rate                            : 48.0 KHz
Bit depth                                : 16 bits
Compression mode                         : Lossy
Stream size                              : 61.6 MiB (4%)
Title                                    : Советский дубляж
Language                                 : Russian
Default                                  : No
Forced                                   : No
Audio #3
ID                                       : 4
Format                                   : AC-3
Format/Info                              : Audio Coding 3
Mode extension                           : CM (complete main)
Format settings, Endianness              : Big
Codec ID                                 : A_AC3
Duration                                 : 1h 29mn
Bit rate mode                            : Constant
Bit rate                                 : 128 Kbps
Channel(s)                               : 2 channels
Channel positions                        : Front: L R
Sampling rate                            : 48.0 KHz
Bit depth                                : 16 bits
Compression mode                         : Lossy
Stream size                              : 82.2 MiB (6%)
Title                                    : Оригинал
Language                                 : French
Default                                  : No
Forced                                   : No
-Скриншоты:
     
-

Интерeсные факты

• Оригинальное название фильма — «Козочка».
• Имена классических персонажей — Перрена и Кампана, роли которых Пьер Ришар и Жерар Депардье исполнили в целой серии французских комедий, режиссер Франсис Вебер использовал для героев Жана Рено и Патрика Брюэля в своей комедии «Ягуар».

Рецензия

Цитата:
Связка лучших комедий из арсенала шедевров Ришара «Невезучие» — «Папаши» — «Беглецы».
«Ришар-Депардье» — один из лучших мужских кино-дуэтов Франции, задвигающий даже дуэты «де Фюнес-Бурвиль» и «Клавье-Рено»! А сколько последователей и подражателей в том французском кинематографе — от весьма забавного «Полного привода» до тех же «Невезучих» — перепевки Вебера собственного сюжета с «Депардье-Рено».
Два главных персонажа, один — рассеянный неудачник и веселый недотепа Пьер, второй — заматерелый и боевитый «амбал» Жерар. Для зрителей маловажно в какой новой ситуации судьба и рука сценариста Вебера свела двух друзей, ведь созерцать их подвиги и похождения доставляет такое наслаждение!
Френсис Вебер один из режиссеров у которых Ришар раскрылся не только как потрясающий комедийный актер, но и как трагикомичный арлекин, под лирическую музыку Владимира Косма совершающий нелепости, и заставляющий зрителя пускать слезу, как например в «Игрушке».
Вне форума [Профиль] [ЛС]
Показать сообщения:    
Ответить на тему

Текущее время: Сегодня 20:56

Часовой пояс: GMT + 3



Вы не можете начинать темы
Вы не можете отвечать на сообщения
Вы не можете редактировать свои сообщения
Вы не можете удалять свои сообщения
Вы не можете голосовать в опросах
Вы не можете прикреплять файлы к сообщениям
Вы не можете скачивать файлы