Сегодня идет свободное скачивание без начисления Download

Преступные связи (Расширенная Версия) / Gang Related (Extended Cut) (1997) DVDRip

Ответить на тему
 
Автор
Сообщение

Omen ®

Стаж: 4 года 1 месяц

Сообщений: 194390

Торрент-статистика

Пост 01-Июн-2013 19:21

[Цитировать]

Преступные связи / Gang Related
«Some cops play by the rules. Their own.»
- Русское название: Преступные связи
Оригинальное название: Gang Related
Год выпуска: 1997
Производство: США, Kouf/Bigelow Productions, Orion Pictures Corporation
Жанр: Драма, криминал
Перевод: Профессиональный (многоголосый, закадровый)
Субтитры: Отсутствуют
Режиссер: Джим Кауф
Сценарий: Джим Кауф
Актеры: Джеймс Белуши, Тупак Шакур, Лила Рошон, Деннис Куэйд, Джеймс Эрл Джонс, Дэвид Пэймер, Венди Крюсон, Гэри Коул, Терренс «Т.К.» Карсон, Брэд Гринквист, Джеймс Хэнди, Кул Мо Ди, Виктор Лав, Роберт ЛаСардо, Перри Анзилотти, Грегори Скотт Камминс, Томми Листер, Томас Миллс
Описание фильма:
Детективы Да Винчи и Родригес, крутые уличные сыщики, под прикрытием полицейских жетонов организовали в городе мощную подпольную сеть наркоторговли. Они действуют просто: находят покупателя, проворачивают с ним сделку, а затем убивают, оставляя себе деньги и товар. После этого аферисты ищут новую жертву, списав смерть клиента на бандитские разборки. Дела идут хорошо, пока не выясняется, что один из убитых — агент комитета по борьбе с наркотиками, работавший под прикрытием. Убийц необходимо найти, и детективы рьяно берутся за дело, решив свалить ответственность за свое злодейство на единственного человека в городе, чей секрет еще страшнее, чем их собственный. И теперь, когда разоблачительные тиски правды начинают сжиматься, Да Винчи и Родригес должны пойти на самый рискованный и хитроумный обман в своей жизни.- -Продолжительность: 01:51:27
Качество видео: DVDRip
Видеокодек: DivX 5
Битрейт видео: 1109 Кбит/сек
Размер кадра: 720x320
Аудио 1: Русский, MP3, 2 ch, 192 Кбит/сек
Аудио 2: Английский, AC3, 6 ch, 448 Кбит/сек

MediaInfo

Код:
Общее
Полное имя                               : E:\Раздачи\Видео\Преступные связи (1997) DVDRip.avi
Формат                                   : AVI
Формат/Информация                        : Audio Video Interleave
Размер файла                             : 1,37 Гбайт
Продолжительность                        : 1 ч. 51 м.
Общий поток                              : 1764 Кбит/сек
Программа кодирования                    : VirtualDubModRus 1.5.10.2 (build 2540/release)
Библиотека кодирования                   : VirtualDubMod build 2540/release
Видео
Идентификатор                            : 0
Формат                                   : MPEG-4 Visual
Параметр BVOP формата                    : 1
Параметр QPel формата                    : Нет
Параметр GMC формата                     : Без точки перехода
Параметр матрицы формата                 : Default (H.263)
Режим смешивания                         : Сжатый битовый поток
Идентификатор кодека                     : DX50
Идентификатор кодека/Подсказка           : DivX 5
Продолжительность                        : 1 ч. 51 м.
Битрейт                                  : 1109 Кбит/сек
Ширина                                   : 720 пикселей
Высота                                   : 320 пикселей
Соотношение сторон                       : 2,25:1
Частота кадров                           : 23,976 кадра/сек
Цветовое пространство                    : YUV
Субдискретизация насыщенности            : 4:2:0
Битовая глубина                          : 8 бит
Тип развёртки                            : Прогрессивная
Метод сжатия                             : С потерями
Бит/(Пиксели*Кадры)                      : 0.201
Размер потока                            : 884 Мбайт (63%)
Библиотека кодирования                   : DivX 6.8.0 (UTC 2007-12-04)
Аудио #1
Идентификатор                            : 1
Формат                                   : MPEG Audio
Версия формата                           : Version 1
Профиль формата                          : Layer 3
Идентификатор кодека                     : 55
Идентификатор кодека/Подсказка           : MP3
Продолжительность                        : 1 ч. 51 м.
Вид битрейта                             : Постоянный
Битрейт                                  : 192 Кбит/сек
Каналы                                   : 2 канала
Частота                                  : 44,1 КГц
Метод сжатия                             : С потерями
Размер потока                            : 153 Мбайт (11%)
Выравнивание                             : Разделение по промежуткам
Продолжительность промежутка             : 42  мс. (1,00 видеокадр)
Время предзагрузки промежутка            : 500  мс.
Аудио #2
Идентификатор                            : 2
Формат                                   : AC-3
Формат/Информация                        : Audio Coding 3
Расширение режима                        : CM (complete main)
Параметр Endianness формата              : Big
Идентификатор кодека                     : 2000
Продолжительность                        : 1 ч. 51 м.
Вид битрейта                             : Постоянный
Битрейт                                  : 448 Кбит/сек
Каналы                                   : 6 каналов
Расположение каналов                     : Front: L C R, Side: L R, LFE
Частота                                  : 48,0 КГц
Битовая глубина                          : 16 бит
Метод сжатия                             : С потерями
Размер потока                            : 357 Мбайт (25%)
Выравнивание                             : Разделение по промежуткам
Продолжительность промежутка             : 42  мс. (1,00 видеокадр)
Время предзагрузки промежутка            : 500  мс.
Скриншоты:
         
         -
Вне форума [Профиль] [ЛС]
Похожие темы
Форум Тема Автор Торрент Отв. Посл. сообщение
./templates/default/images/folder_dl.gif Зарубежные сериалы Игра престолов / Game of Thrones / Сезон 1 / Серии 1-10 из 10 (Тимоти Ван Паттен, Брайан Кирк) [2011, фэнтези, драма, HDTVRip] (LostFilm) nsa1977
1 | 0

7 | 3429

133

2011-07-08 20:30
nsa1977 Последнее
./templates/default/images/folder_dl.gif Разное Анатолий Бернацкий | Идеальные преступники [2008] [FB2] UndegraundMen
1 | 0

0 | 602

3

2013-08-18 05:20
UndegraundMen Последнее
./templates/default/images/folder_dl.gif T Новинки (HD|DVD|BD|WEB|TV|SAT|PDTV|-Rip) Преступник / Criminal (Ариэль Вромен) [2016, фантастика, боевик, триллер, WEBRip, Дубляж - [Чистый звук] Region_13
1 | 0

0 | 430

25

2016-06-30 20:59
Region_13 Последнее
Показать сообщения:    
Ответить на тему

Текущее время: Сегодня 17:20

Часовой пояс: GMT + 3



Вы не можете начинать темы
Вы не можете отвечать на сообщения
Вы не можете редактировать свои сообщения
Вы не можете удалять свои сообщения
Вы не можете голосовать в опросах
Вы не можете прикреплять файлы к сообщениям
Вы не можете скачивать файлы