Сегодня идет свободное скачивание без начисления Download

Дураков нет / Nobody's Fool (Роберт Бентон) (Драма, Комедия, 1994) [H.264] DVDRip

Ответить на тему
 
Автор
Сообщение

Omen ®

Стаж: 4 года 1 месяц

Сообщений: 194390

Торрент-статистика

Пост 01-Июн-2013 19:28

[Цитировать]

Дураков нет / Nobody's Fool - Русское название: Дураков нет
Оригинальное название: Nobody's Fool
Год выпуска: 1994
Выпущено: США / Capella International, Cinehaus, Paramount Pictures
Жанр: Драма, Комедия-Описание фильма:
История о шестидесятилетнем добродушном старике, который никак не хочет становиться взрослым.-Режиссер: Роберт Бентон
Продюсер: Арлин Донован, Скотт Фергюсон, Майкл Хаусман
Актеры: Пол Ньюман, Джессика Тэнди, Брюс Уиллис, Мелани Гриффит, Дилан Уолш, Прюитт Тэйлор Винс, Джин Сэкс, Йозеф Зоммер, Филип Сеймур Хоффман, Филип Боско-Продолжительность: 01:45:24
Перевод: Двуголосый закадровый / Одноголосый закадровый, авторский [Сергей Визгунов]- -Дата мировой премьеры: 23 декабря 1994-Видеокодек: MPEG-4 AVC/H.264
Битрейт видео: ~2453 kb/s
Размер кадра: [email protected]
Качество видео: DVDRip
Аудио#1: 48 kHz, AC3, 2 ch, 192 kb/s - русский двухголосый закадровый (VHS)
Аудио#2: 48 kHz, AC3, 2 ch, 192 kb/s - русский одноголосый (Сергей Визгунов)
Аудио#3: 48 kHz, AC3, 2 ch, 128 kb/s - английский

MediaInfo

Общее
Уникальный идентификатор : 182218940805550936554980965125029394243 (0x8916176979FB838B89FF8CE81BD47743)
Полное имя : D:\Торрент раздача\Nobody's Fool (1994) DVDRip-AVC (x264, 2xRus, Eng).mkv
Формат : Matroska
Версия формата : Version 2
Размер файла : 2,18 Гбайт
Продолжительность : 1 ч. 45 м.
Общий поток : 2966 Кбит/сек
Название фильма : Без дураков / Дураков нет / Nobody's Fool (1994) DVDRip-AVC
Дата кодирования : UTC 2013-01-20 11:14:08
Программа кодирования : mkvmerge v4.9.1 ('Ich will') сборка от Aug 10 2011 09:31:20
Библиотека кодирования : libebml v1.2.1 + libmatroska v1.2.0
Видео
Идентификатор : 1
Формат : AVC
Формат/Информация : Advanced Video Codec
Профиль формата : [url=mailto:[email protected]][email protected][/url]
Параметр CABAC формата : Да
Параметр ReFrames формата : 7 кадров
Режим смешивания : Header stripping
Идентификатор кодека : V_MPEG4/ISO/AVC
Продолжительность : 1 ч. 45 м.
Битрейт : 2453 Кбит/сек
Ширина : 688 пикселей
Высота : 576 пикселей
Соотношение сторон : 1,698
Соотношение сторон в оригинале : 1,699
Режим частоты кадров : Постоянный
Частота кадров : 25,000 кадров/сек
Цветовое пространство : YUV
Субдискретизация насыщенности : 4:2:0
Битовая глубина : 8 бит
Тип развёртки : Прогрессивная
Бит/(Пиксели*Кадры) : 0.248
Размер потока : 1,76 Гбайт (81%)
Заголовок : DVDRip-AVC, [email protected], 1.69:1, 25.000 fps, x264, ~2 453 Kbps / Source: DVD5 Custom from Fedor91
Библиотека кодирования : x264 core 125 r2208 d9d2288
Настройки программы : cabac=1 / ref=7 / deblock=1:-3:-3 / analyse=0x3:0x133 / me=umh / subme=10 / psy=1 / psy_rd=1.00:0.00 / mixed_ref=1 / me_range=32 / chroma_me=1 / trellis=2 / 8x8dct=1 / cqm=0 / deadzone=21,11 / fast_pskip=0 / chroma_qp_offset=-2 / threads=4 / lookahead_threads=1 / sliced_threads=0 / nr=0 / decimate=0 / interlaced=0 / bluray_compat=0 / constrained_intra=0 / bframes=7 / b_pyramid=2 / b_adapt=2 / b_bias=0 / direct=3 / weightb=1 / open_gop=0 / weightp=2 / keyint=250 / keyint_min=25 / scenecut=40 / intra_refresh=0 / rc_lookahead=60 / rc=2pass / mbtree=1 / bitrate=2453 / ratetol=1.0 / qcomp=0.60 / qpmin=0 / qpmax=69 / qpstep=4 / cplxblur=20.0 / qblur=0.5 / ip_ratio=1.40 / aq=1:1.00
Язык : English
Default : Да
Forced : Нет
Аудио #1
Идентификатор : 2
Формат : AC-3
Формат/Информация : Audio Coding 3
Расширение режима : CM (complete main)
Параметр Endianness формата : Big
Режим смешивания : Header stripping
Идентификатор кодека : A_AC3
Продолжительность : 1 ч. 45 м.
Вид битрейта : Постоянный
Битрейт : 192 Кбит/сек
Каналы : 2 канала
Расположение каналов : Front: L R
Частота : 48,0 КГц
Битовая глубина : 16 бит
Метод сжатия : С потерями
Размер потока : 145 Мбайт (6%)
Заголовок : AC3, 2 ch, 192 Kbps - Rus DVO: двухголосый закадровый (VHS)
Язык : Russian
Default : Да
Forced : Нет
Аудио #2
Идентификатор : 3
Формат : AC-3
Формат/Информация : Audio Coding 3
Расширение режима : CM (complete main)
Параметр Endianness формата : Big
Режим смешивания : Header stripping
Идентификатор кодека : A_AC3
Продолжительность : 1 ч. 45 м.
Вид битрейта : Постоянный
Битрейт : 192 Кбит/сек
Каналы : 2 канала
Расположение каналов : Front: L R
Частота : 48,0 КГц
Битовая глубина : 16 бит
Метод сжатия : С потерями
Размер потока : 145 Мбайт (6%)
Заголовок : AC3, 2 ch, 192 Kbps - Rus AVO: одноголосый (Сергей Визгунов)
Язык : Russian
Default : Нет
Forced : Нет
Аудио #3
Идентификатор : 4
Формат : AC-3
Формат/Информация : Audio Coding 3
Расширение режима : CM (complete main)
Параметр Endianness формата : Big
Режим смешивания : Header stripping
Идентификатор кодека : A_AC3
Продолжительность : 1 ч. 45 м.
Вид битрейта : Постоянный
Битрейт : 128 Кбит/сек
Каналы : 2 канала
Расположение каналов : Front: L R
Частота : 48,0 КГц
Битовая глубина : 16 бит
Метод сжатия : С потерями
Размер потока : 96,5 Мбайт (4%)
Заголовок : AC3, 2 ch, 128 Kbps - Eng: Original
Язык : English
Default : Нет
Forced : Нет
Скриншоты:
         
         
Вне форума [Профиль] [ЛС]
Похожие темы
Форум Тема Автор Торрент Отв. Посл. сообщение
./templates/default/images/folder_dl.gif Разное Александр Бушков | Корабль дураков, или Краткая история самостийности [2011] [PDF] UndegraundMen
1 | 0

0 | 1337

10

2013-08-30 23:01
UndegraundMen Последнее
Показать сообщения:    
Ответить на тему

Текущее время: Сегодня 14:53

Часовой пояс: GMT + 3



Вы не можете начинать темы
Вы не можете отвечать на сообщения
Вы не можете редактировать свои сообщения
Вы не можете удалять свои сообщения
Вы не можете голосовать в опросах
Вы не можете прикреплять файлы к сообщениям
Вы не можете скачивать файлы