Сегодня идет свободное скачивание без начисления Download

В пасти безумия / In the Mouth of Madness (Джон Карпентер / John Carpenter) (Ужасы, Фантастика, Триллер, 1995) DVDRip [H.264]

Ответить на тему
 
Автор
Сообщение

Omen ®

Стаж: 4 года 1 месяц

Сообщений: 194394

Торрент-статистика

Пост 01-Июн-2013 21:06

[Цитировать]

В пасти безумия
In the Mouth of Madness
- Страна: США
Русское название: В пасти безумия
Оригинальное название: In the Mouth of Madness
Год выпуска: 1995
Жанр: Ужасы, Фантастика, Триллер
Описание фильма:
Произведения Саттера Кэйна побили все рекорды популярности — Стивену Кингу такое не снилось. Эффект, производимый на некоторых почитателей таланта Кэйна, — полная дизориентация и потеря памяти, массовые вспышки насилия, шизофреники, переполнившие клиники. Сам же автор романов ужасов, приносящих бешеный доход издательствам, исчез уже два месяца тому назад. Для его поисков издательство нанимает страхового агента Джона Трэйта, и поиски приводят его в город, описанный в книге, но отсутствующий на карте…
Режиссер: Джон Карпентер / John Carpenter
Актеры: Сэм Нил, Джули Кармен, Юрген Прохнов, Дэвид Уорнер, Джон Гловер, Берни Кейси, Питер Джейсон, Чарлтон Хестон, Фрэнсис Бэй, Вильгельм фон Хомбург
Продолжительность: 01:31:27
Перевод: Профессиональный (многоголосый, закадровый), Авторский (одноголосый, закадровый) Ю. Сербин
Субтитры: Русские, Английские

Качество: DVDRip by - Джон Коннор -
Формат: MKV
Видео кодек: MPEG-4 AVC/H.264
Видео: [email protected] (2.35:1), 25,000 fps, ~2115 kbps, 0,270 bit/pix
Аудио 1: Русский: 48 kHz, AC3 5.1 ch, ~448.00 kbps avg (Профессиональный - многоголосый, закадровый)
Аудио 2: Русский: 48 kHz, AC3 2.0 ch, ~192.00 kbps avg (Авторский одноголосый, закадровый - Ю. Сербин)
Аудио 3: Английский: 48 kHz, AC3 5.1 ch, ~448.00 kbps avg (Оригинальный)

Mediainfo

General
Complete name : В пасти безумия. In the Mouth of Madness. 1995. (мист.ужасы от John Carpenter). DVDRip-AVC.mkv
Format : Matroska
Format version : Version 2
File size : 2.05 GiB
Duration : 1h 31mn
Overall bit rate : 3 204 Kbps
Movie name : (1995) В пасти безумия - релиз подготовил -Джон Коннор- для (стерилизуемый трекер).org
Encoded date : UTC 2010-09-22 11:34:27
Writing application : mkvmerge v4.2.0 ('No Talking') сборка от Jul 28 2010 18:38:23
Writing library : libebml v1.0.0 + libmatroska v1.0.0
Video
ID : 1
Format : AVC
Format/Info : Advanced Video Codec
Format profile : [url=mailto:[email protected]][email protected][/url]
Format settings, CABAC : Yes
Format settings, ReFrames : 9 frames
Muxing mode : Header stripping
Codec ID : V_MPEG4/ISO/AVC
Duration : 1h 31mn
Bit rate : 2 116 Kbps
Width : 720 pixels
Height : 432 pixels
Display aspect ratio : 2.35:1
Frame rate mode : Constant
Frame rate : 25.000 fps
Color space : YUV
Chroma subsampling : 4:2:0
Bit depth : 8 bits
Scan type : Progressive
Bits/(Pixel*Frame) : 0.272
Stream size : 1.31 GiB (64%)
Title : (1995) В пасти безумия - релиз подготовил -Джон Коннор- для (стерилизуемый трекер).org
Writing library : x264 core 79
Encoding settings : cabac=1 / ref=9 / deblock=1:-2:-2 / analyse=0x3:0x113 / me=umh / subme=9 / psy=1 / psy_rd=1.0:0.0 / mixed_ref=1 / me_range=32 / chroma_me=1 / trellis=2 / 8x8dct=1 / cqm=0 / deadzone=21,11 / chroma_qp_offset=-2 / threads=3 / nr=0 / decimate=1 / mbaff=0 / constrained_intra=0 / bframes=6 / b_pyramid=0 / b_adapt=2 / b_bias=0 / direct=1 / wpredb=1 / wpredp=2 / keyint=250 / keyint_min=25 / scenecut=40 / rc_lookahead=50 / rc=2pass / mbtree=1 / bitrate=2116 / ratetol=1.0 / qcomp=0.60 / qpmin=10 / qpmax=51 / qpstep=4 / cplxblur=20.0 / qblur=0.5 / ip_ratio=1.40 / aq=1:1.00
Language : Russian
Default : Yes
Forced : No
Color primaries : BT.601 NTSC
Transfer characteristics : BT.709
Matrix coefficients : BT.601
Audio #1
ID : 2
Format : AC-3
Format/Info : Audio Coding 3
Mode extension : CM (complete main)
Format settings, Endianness : Big
Muxing mode : Header stripping
Codec ID : A_AC3
Duration : 1h 31mn
Bit rate mode : Constant
Bit rate : 448 Kbps
Channel(s) : 6 channels
Channel positions : Front: L C R, Side: L R, LFE
Sampling rate : 48.0 KHz
Bit depth : 16 bits
Compression mode : Lossy
Stream size : 293 MiB (14%)
Title : Профессиональный (многоголосый, закадровый)
Language : Russian
Default : Yes
Forced : No
Audio #2
ID : 3
Format : AC-3
Format/Info : Audio Coding 3
Mode extension : CM (complete main)
Format settings, Endianness : Big
Muxing mode : Header stripping
Codec ID : A_AC3
Duration : 1h 31mn
Bit rate mode : Constant
Bit rate : 192 Kbps
Channel(s) : 2 channels
Channel positions : Front: L R
Sampling rate : 48.0 KHz
Bit depth : 16 bits
Compression mode : Lossy
Stream size : 126 MiB (6%)
Title : Авторский (одноголосый, закадровый) Ю. Сербин
Language : Russian
Default : No
Forced : No
Audio #3
ID : 4
Format : AC-3
Format/Info : Audio Coding 3
Mode extension : CM (complete main)
Format settings, Endianness : Big
Muxing mode : Header stripping
Codec ID : A_AC3
Duration : 1h 31mn
Bit rate mode : Constant
Bit rate : 448 Kbps
Channel(s) : 6 channels
Channel positions : Front: L C R, Side: L R, LFE
Sampling rate : 48.0 KHz
Bit depth : 16 bits
Compression mode : Lossy
Stream size : 293 MiB (14%)
Title : Оригинальный
Language : English
Default : No
Forced : No
Text #1
ID : 5
Format : UTF-8
Codec ID : S_TEXT/UTF8
Codec ID/Info : UTF-8 Plain Text
Title : Русские
Language : Russian
Default : No
Forced : No
Text #2
ID : 6
Format : UTF-8
Codec ID : S_TEXT/UTF8
Codec ID/Info : UTF-8 Plain Text
Title : Оригинальные
Language : English
Default : No
Forced : No
Menu
00:00:00.000 : en:Chapter 1
00:04:23.200 : en:Chapter 2
00:11:47.800 : en:Chapter 3
00:18:39.080 : en:Chapter 4
00:26:57.000 : en:Chapter 5
00:36:26.240 : en:Chapter 6
00:43:03.280 : en:Chapter 7
00:48:55.080 : en:Chapter 8
01:00:53.560 : en:Chapter 9
01:09:19.240 : en:Chapter 10
01:15:17.720 : en:Chapter 11
01:22:34.400 : en:Chapter 12
01:31:27.480 : en:Chapter 13

Дополнительно

В 1995 году на фестивале во французском городе Жерармере (он пришёл на смену киносмотру в Авориазе, где целых два десятилетия проводились конкурсные состязания фантастики и фильмов ужасов) картина Джона Карпентера, одного из тех, кого можно назвать классиком жанра, не случайно соседствовала с работой другого аса — Уэса Крейвена, который включил своё имя даже в заголовок: «Новый кошмар Уэса Крейвена». Критики твердили о свежей струе в творчестве этих мастеров, якобы воспользовавшихся постмодернистским принципом построения лент на стыке вымысла и действительности, пародии и подлинного страха. Однако в этом смысле предпочтительнее выглядели произведения более молодых режиссёров, которые были показаны тогда в Жерармере — «Божественные создания» Питера Джексона и «О смерти и любви» Микеле Соави.
А вот фильмы Карпентера и Крейвена производили впечатление жалких потуг исписавшихся авторов, которые уже не могли придумать ничего нового и экстраординарного, поэтому без зазрения совести занимались примитивными перепевами своего и чужого творчества, рискованно заигрывая со смертью и силами зла. В частности, в картине «В пасти безумия» материализуется мир ужасов из ещё не написанной книги некоего Саттера Кейна — и всё заканчивается полным кошмаром под хохот частного сыщика, который пытался найти пропавшего писателя. Даже тот, кто не злораден, всё равно ненароком подумает о том, что авторы подобных опусов когда-нибудь точно доиграются.
Сергей Кудрявцев
Скриншоты:
       
Вне форума [Профиль] [ЛС]
Показать сообщения:    
Ответить на тему

Текущее время: Сегодня 16:40

Часовой пояс: GMT + 3



Вы не можете начинать темы
Вы не можете отвечать на сообщения
Вы не можете редактировать свои сообщения
Вы не можете удалять свои сообщения
Вы не можете голосовать в опросах
Вы не можете прикреплять файлы к сообщениям
Вы не можете скачивать файлы