Сегодня идет свободное скачивание без начисления Download

Лангольеры / The Langoliers (Том Холлэнд) [1995, Фантастика, Триллер, Драма]DVDRip

Ответить на тему
 
Автор
Сообщение

sashau ®

Пол:

Стаж: 4 года 11 месяцев

Сообщений: 3785

Торрент-статистика

Пост 01-Июн-2013 22:08

[Цитировать]

Лангольеры / The Langoliers - Русское название: Лангольеры
Оригинальное название: The Langoliers
Год выпуска: 1995
Производство: США
Жанр: Фантастика, Триллер, Драма
Описание фильма:
Пассажиры самолета, летящего в Бостон из Лос-Анджелеса, попадают в «дыру во времени» и оказываются в ином мире, переживая невероятные приключения. Удастся ли им вернуться назад…
Режиссер: Том Холлэнд
Актеры: Патришиа Уэттиг, Дин Стокуэлл, Дэвид Морс, Марк Линдсэй Чэпман, Фрэнки Фэйзон, Бакстер Харрис, Кимбер Риддл, Кристофер Коллет, Кэйт Мэберли, Бронсон Пинчот
Продолжительность: 02:59:58
Перевод: Многоголосый закадровый, Авторский (одноголосый) Юрий Живов
Язык субтитров: Отсутствуют

Дата мировой премьеры: 14 мая 1995
Видеокодек: Xvid
Битрейт видео: ~1554 kbps avg
Размер кадра: 720x544
Качество видео: DVDRip
Аудио #1: AC3 2.0, ~192 kbps (многоголосый закадровый)
Аудио #2: AC3 2.0, ~192 kbps (одноголосый, Юрий Живов)

MediaInfo

Общее
Полное имя : D:\Торренты на раздачу\Лангольеры\The_Langoliers.avi
Формат : AVI
Формат/Информация : Audio Video Interleave
Профиль формата : OpenDML
Размер файла : 2,45 Гбайт
Продолжительность : 2 ч. 59 м.
Общий поток : 1945 Кбит/сек
Программа кодирования : VirtualDubMod 1.5.4.1 (build 2178/release)
Библиотека кодирования : VirtualDubMod build 2178/release
Видео
Идентификатор : 0
Формат : MPEG-4 Visual
Профиль формата : Advanced [email protected]
Параметр BVOP формата : 1
Параметр QPel формата : Нет
Параметр GMC формата : Без точки перехода
Параметр матрицы формата : Выборочная
Идентификатор кодека : XVID
Идентификатор кодека/Подсказка : XviD
Продолжительность : 2 ч. 59 м.
Битрейт : 1550 Кбит/сек
Ширина : 720 пикселей
Высота : 544 пикселя
Соотношение сторон : 4:3
Частота кадров : 25,000 кадров/сек
Цветовое пространство : YUV
Субдискретизация насыщенности : 4:2:0
Битовая глубина : 8 бит
Тип развёртки : Прогрессивная
Метод сжатия : С потерями
Бит/(Пиксели*Кадры) : 0.158
Размер потока : 1,95 Гбайт (80%)
Библиотека кодирования : XviD 1.2.0.dev47 (UTC 2006-11-01)
Аудио #1
Идентификатор : 1
Формат : AC-3
Формат/Информация : Audio Coding 3
Расширение режима : CM (complete main)
Параметр Endianness формата : Big
Идентификатор кодека : 2000
Продолжительность : 2 ч. 59 м.
Вид битрейта : Постоянный
Битрейт : 192 Кбит/сек
Каналы : 2 канала
Расположение каналов : Front: L R
Частота : 48,0 КГц
Битовая глубина : 16 бит
Метод сжатия : С потерями
Размер потока : 247 Мбайт (10%)
Выравнивание : Разделение по промежуткам
Продолжительность промежутка : 96 мс. (2,40 видеокадра)
Время предзагрузки промежутка : 96 мс.
Язык : English
Аудио #2
Идентификатор : 2
Формат : AC-3
Формат/Информация : Audio Coding 3
Расширение режима : CM (complete main)
Параметр Endianness формата : Big
Идентификатор кодека : 2000
Продолжительность : 2 ч. 59 м.
Вид битрейта : Постоянный
Битрейт : 192 Кбит/сек
Каналы : 2 канала
Расположение каналов : Front: L R
Частота : 48,0 КГц
Битовая глубина : 16 бит
Метод сжатия : С потерями
Размер потока : 247 Мбайт (10%)
Выравнивание : Разделение по промежуткам
Продолжительность промежутка : 96 мс. (2,40 видеокадра)
Время предзагрузки промежутка : 96 мс.
Язык : English
Скриншоты:
         
Вне форума [Профиль] [ЛС]
Показать сообщения:    
Ответить на тему

Текущее время: Сегодня 14:50

Часовой пояс: GMT + 3



Вы не можете начинать темы
Вы не можете отвечать на сообщения
Вы не можете редактировать свои сообщения
Вы не можете удалять свои сообщения
Вы не можете голосовать в опросах
Вы не можете прикреплять файлы к сообщениям
Вы не можете скачивать файлы