Сегодня идет свободное скачивание без начисления Download

Дет­ство, призвание и первые опыты Джакомо Казановы, венецианца / Infanzia, vocazione e prime esperienze di Giacomo Casanova, veneziano (1969) DVDRip

Ответить на тему
 
Автор
Сообщение

UndegraundMen ®

Стаж: 3 года 9 месяцев

Сообщений: 28329

Торрент-статистика

Пост 02-Июн-2013 08:35

[Цитировать]

Дет­ство, призвание и первые опыты Джакомо Казановы, венецианца / Infanzia, vocazione e prime esperienze di Giacomo Casanova, veneziano (1969) DVDRip- Русское название: Дет­ство, призвание и первые опыты Джакомо Казановы, венецианца
Оригинальное название: Infanzia, vocazione e prime esperienze di Giacomo Casanova, veneziano
Год выпуска: 1969
Жанр: Комедия
Описание фильма:
Фильм снят по первому тому «Истории моей жизни» Джакомо Джованни Казанова, охватывая его детские и юношеские годы. Правдивое бытописание жизни Венеции середины 18 века: традиции, обычаи, медицина, религиозные обряды, моды и костюмы, но более всего - всепроникающее лицемерие.
Режиссер: Луиджи Коменчини / Luigi Comencini
Актеры: Сента Бергер, Леонард Уайтинг, Мария Грация Буччелла, Лайонел Стэндер, Рауль Грассилли, Уилфрид Брэмбелл, Тина Омон, Марио Скачча, Клаудио Де Кунерт, Сильвия Дионисио, Сара Франкетти
Продолжительность: 01:58:24
Перевод: Одноголосый закадровый

Дата мировой премьеры: 30.10.1969
Видеокодек: Xvid
Битрейт видео: ~1500 kb/s
Размер кадра: 704 x 384
Качество видео: DVDRip
Аудио:
1. MP3, 44,1 кГц, 192 кбит/сек, 2 канала, русский
2. AC-3, 48,0 кГц, 192 кбит/сек, 2 канала, итальянский

MediaInfo

Общее
Полное имя : Детство, призвание и первые опыты 1969\Детство
призвание и первые опыты 1969.avi
Формат : AVI
Формат/Информация : Audio Video Interleave
Размер файла : 1,57 Гбайт
Продолжительность : 1 ч. 58 м.
Общий поток : 1898 Кбит/сек
Программа кодирования : VirtualDubMod 1.5.10.2 (build 2540/release)
Библиотека кодирования : VirtualDubMod build 2540/release
Видео
Идентификатор : 0
Формат : MPEG-4 Visual
Профиль формата : [email protected]
Параметр BVOP формата : Нет
Параметр QPel формата : Нет
Параметр GMC формата : Без точки перехода
Параметр матрицы формата : Default (H.263)
Идентификатор кодека : XVID
Идентификатор кодека/Подсказка : XviD
Продолжительность : 1 ч. 58 м.
Битрейт : 1500 Кбит/сек
Ширина : 704 пикселя
Высота : 384 пикселя
Соотношение сторон : 1,85:1
Частота кадров : 25,000 кадров/сек
Цветовое пространство : YUV
Субдискретизация насыщенности : 4:2:0
Битовая глубина : 8 бит
Тип развёртки : Прогрессивная
Метод сжатия : С потерями
Бит/(Пиксели*Кадры) : 0.222
Размер потока : 1,24 Гбайт (79%)
Библиотека кодирования : XviD 1.1.2 (UTC 2006-11-01)
Аудио #1
Идентификатор : 1
Формат : MPEG Audio
Версия формата : Version 1
Профиль формата : Layer 3
Идентификатор кодека : 55
Идентификатор кодека/Подсказка : MP3
Продолжительность : 1 ч. 58 м.
Вид битрейта : Постоянный
Битрейт : 192 Кбит/сек
Каналы : 2 канала
Частота : 44,1 КГц
Метод сжатия : С потерями
Размер потока : 163 Мбайт (10%)
Выравнивание : Разделение по промежуткам
Продолжительность промежутка : 40 мс. (1,00 видеокадр)
Время предзагрузки промежутка : 500 мс.
Аудио #2
Идентификатор : 2
Формат : AC-3
Формат/Информация : Audio Coding 3
Расширение режима : CM (complete main)
Параметр Endianness формата : Big
Идентификатор кодека : 2000
Продолжительность : 1 ч. 58 м.
Вид битрейта : Постоянный
Битрейт : 192 Кбит/сек
Каналы : 2 канала
Расположение каналов : Front: L R
Частота : 48,0 КГц
Битовая глубина : 16 бит
Метод сжатия : С потерями
Размер потока : 163 Мбайт (10%)
Выравнивание : Разделение по промежуткам
Продолжительность промежутка : 40 мс. (1,00 видеокадр)
Время предзагрузки промежутка : 500 мс.
Скриншоты:
           
Вне форума [Профиль] [ЛС]
Показать сообщения:    
Ответить на тему

Текущее время: Сегодня 15:10

Часовой пояс: GMT + 3



Вы не можете начинать темы
Вы не можете отвечать на сообщения
Вы не можете редактировать свои сообщения
Вы не можете удалять свои сообщения
Вы не можете голосовать в опросах
Вы не можете прикреплять файлы к сообщениям
Вы не можете скачивать файлы