Сегодня идет свободное скачивание без начисления Download

Система безопасности / Fail-Safe (1964) DVDRip

Ответить на тему
 
Автор
Сообщение

UndegraundMen ®

Стаж: 3 года 11 месяцев

Сообщений: 28331

Торрент-статистика

Пост 02-Июн-2013 08:35

[Цитировать]

Система безопасности / Fail-Safe (1964) DVDRip- Русское название: Система безопасности
Оригинальное название: Fail-Safe
Год выпуска: 1964
Жанр: Триллер, Драма, Военный
Страна: США, Columbia Pictures Corporation
Описание фильма:
Компьютер военного ведомства США дает сбой, и пилоты ядерных бомбардировщиков получают команду атаковать Москву. Теперь экипажи самолетов не имеют права выходить в эфир, их единственная задача — выполнить миссию любой ценой. У президента США есть несколько часов, чтобы предотвратить надвигающуюся катастрофу.
Режиссер: Сидни Люмет
Актеры: Дэн О’Херлихи, Уолтер Мэттау, Фрэнк Овертон, Эд Биннс, Фриц Уивер, Генри Фонда, Ларри Хэгмэн, Уильям Хансен, Расселл Харди, Расселл Коллинз
Продолжительность: 01:47:33
Перевод: Многоголосый закадровый + Оригинал (английский)

Дата мировой премьеры: 15 сентября 1964
Видеокодек: Xvid
Битрейт видео: ~2062 kb/s
Размер кадра: 640х352
Качество видео: DVDRip
Аудиокодек: AC3 2 ch
Битрейт аудио: 128 kb/s
Сэмпл: Ссылка

MediaInfo

Код:
Общее
Полное имя                               : E:\Фильмы\Хорошие фильмы\Система безопасности.avi
Формат                                   : AVI
Формат/Информация                        : Audio Video Interleave
Размер файла                             : 1,75 Гбайт
Продолжительность                        : 1 ч. 47 м.
Общий поток                              : 2332 Кбит/сек
Название фильма                          : Fail Safe (1964)
Программа кодирования                    : VirtualDubMod 1.5.10.2 (build 2542/release)
Библиотека кодирования                   : VirtualDubMod build 2542/release
Видео
Идентификатор                            : 0
Формат                                   : MPEG-4 Visual
Профиль формата                          : Advanced [email protected]
Параметр BVOP формата                    : 2
Параметр QPel формата                    : Нет
Параметр GMC формата                     : Без точки перехода
Параметр матрицы формата                 : Default (MPEG)
Идентификатор кодека                     : XVID
Идентификатор кодека/Подсказка           : XviD
Продолжительность                        : 1 ч. 47 м.
Битрейт                                  : 2062 Кбит/сек
Ширина                                   : 640 пикселей
Высота                                   : 352 пикселя
Соотношение сторон                       : 16:9
Частота кадров                           : 25,000 кадров/сек
Цветовое пространство                    : YUV
Субдискретизация насыщенности            : 4:2:0
Битовая глубина                          : 8 бит
Тип развёртки                            : Прогрессивная
Метод сжатия                             : С потерями
Бит/(Пиксели*Кадры)                      : 0.366
Размер потока                            : 1,55 Гбайт (88%)
Библиотека кодирования                   : XviD 1.1.2 (UTC 2006-11-01)
Аудио #1
Идентификатор                            : 1
Формат                                   : AC-3
Формат/Информация                        : Audio Coding 3
Расширение режима                        : CM (complete main)
Идентификатор кодека                     : 2000
Продолжительность                        : 1 ч. 47 м.
Вид битрейта                             : Постоянный
Битрейт                                  : 128 Кбит/сек
Каналы                                   : 2 канала
Расположение каналов                     : Front: L R
Частота                                  : 48,0 КГц
Битовая глубина                          : 16 бит
Метод сжатия                             : С потерями
Размер потока                            : 98,5 Мбайт (5%)
Выравнивание                             : Соединение по промежуткам
Продолжительность промежутка             : 40  мс. (1,00 видеокадр)
Время предзагрузки промежутка            : 512  мс.
Аудио #2
Идентификатор                            : 2
Формат                                   : AC-3
Формат/Информация                        : Audio Coding 3
Расширение режима                        : CM (complete main)
Идентификатор кодека                     : 2000
Продолжительность                        : 1 ч. 47 м.
Вид битрейта                             : Постоянный
Битрейт                                  : 128 Кбит/сек
Каналы                                   : 2 канала
Расположение каналов                     : Front: L R
Частота                                  : 48,0 КГц
Битовая глубина                          : 16 бит
Метод сжатия                             : С потерями
Размер потока                            : 98,5 Мбайт (5%)
Выравнивание                             : Соединение по промежуткам
Продолжительность промежутка             : 40  мс. (1,00 видеокадр)
Время предзагрузки промежутка            : 512  мс.
Скриншоты:

Время раздачи: С 9:00 до 22:00
Вне форума [Профиль] [ЛС]
Похожие темы
Форум Тема Автор Торрент Отв. Посл. сообщение
./templates/default/images/folder_dl.gif Обучающее видео Специалист | Linux (Ubuntu) FreeBSD. Уровень 3. Обеспечение безопасности систем сервисов и сетей (2013) [PCRec] UndegraundMen
1 | 0

0 | 1258

43

2013-10-20 21:12
UndegraundMen Последнее
./templates/default/images/folder_dl.gif Обучающее видео Илья Цымбалист, Алексей Лысенко | Вся система профессиональной работы с Яндекс Директ (2014) [PCRec] Omen
1 | 0

0 | 1608

106

2014-06-08 21:46
Omen Последнее
./templates/default/images/folder_dl.gif Обучающее видео Pluralsight | Глубокое погружение в систему виртуализации Docker / Docker Deep Dive (2015) PCRec [EN] Omen
0 | 1

0 | 331

5

2015-02-02 18:15
Omen Последнее
./templates/default/images/folder_dl.gif Обучающее видео Geekbrains | Системное администрирование. Введение и основы TCPIP (2015) PCRec Omen
1 | 0

0 | 1865

78

2015-03-30 12:01
Omen Последнее
./templates/default/images/folder_dl.gif Обучающее видео Бунин | Пошаговый алгоритм проектирования высоконагруженной системы для Web (2014) PCRec Omen
1 | 0

0 | 101

17

2015-05-07 21:44
Omen Последнее
./templates/default/images/folder_dl.gif Обучающее видео ИПАП | Системный администратор (2015) PCRec Clavik
1 | 0

0 | 886

39

2015-05-28 02:22
Clavik Последнее
./templates/default/images/folder_dl.gif Обучающее видео HighLoad | Профессиональная конференция разработчиков высоконагруженных систем HighLoad++ (2013) PCRec [H.264/720p] Omen
1 | 0

0 | 331

8

2015-06-08 19:09
Omen Последнее
./templates/default/images/folder_dl.gif Обучающее видео Учебный центр 1C | Разработка мобильных приложений в системе 1С Предприятие 8.3 (2015) PCRec [H.264] Varius
1 | 0

0 | 646

48

2015-07-08 23:14
Varius Последнее
./templates/default/images/folder_dl.gif Обучающее видео [IT Pro] Материалы по системному и сетевому администрированию CentOS 7 [2015, RUS] Omen
2 | 0

0 | 385

22

2015-12-27 18:00
Omen Последнее
./templates/default/images/folder_dl.gif Психология, Тренинг, Саморазвитие Мэрилин Аткинсон, Рае Т. Чойс | Достижение целей: Пошаговая система (2013) [FB2, DOCX] moralis
1 | 0

0 | 156

12

2016-02-25 22:28
moralis Последнее
Показать сообщения:    
Ответить на тему

Текущее время: Сегодня 18:02

Часовой пояс: GMT + 3



Вы не можете начинать темы
Вы не можете отвечать на сообщения
Вы не можете редактировать свои сообщения
Вы не можете удалять свои сообщения
Вы не можете голосовать в опросах
Вы не можете прикреплять файлы к сообщениям
Вы не можете скачивать файлы