Сегодня идет свободное скачивание без начисления Download

Безумный Макс 3: Под куполом грома / Mad Max Beyond Thunderdome (Джордж Миллер, Джордж Огилве) (Боевик, Приключения, Фантастика, 1985) HDRip

Ответить на тему
 
Автор
Сообщение

Omen ®

Стаж: 4 года 1 месяц

Сообщений: 194394

Торрент-статистика

Пост 03-Июн-2013 18:59

[Цитировать]

Безумный Макс 3: Под куполом грома
Mad Max Beyond Thunderdome
- Русское название: Безумный Макс 3: Под куполом грома
Оригинальное название: Mad Max Beyond Thunderdome
Год выпуска: 1985
Жанр: Боевик, Приключения, Фантастика
Описание фильма:
В городе Батертауне правит коварная властительница Энтити. Для укрепления своей власти она пытается использовать Макса, непревзойденного мастера дорожных схваток. Но теперь завораживающую череду автомобильных разборок под испепеляющим солнцем начинают сменять невероятные рукопашные бои.
Режиссер: Джордж Миллер, Джордж Огилве
Актеры: Мэл Гибсон ('Mad' Max Rockatansky), Тина Тёрнер (Aunty Entity), Брюс Спенс (Jedediah the Pilot), Фрэнк Тринг (The Collector), Анджело Росситто (The Master), Роберт Грубб (Pig Killer), Джастин Кларк (Anna Goanna), Тушка Берген (Guardian)
Продолжительность: 01:46:58
Перевод: Профессиональный (полное дублирование), Авторский (одноголосый закадровый) А. Гаврилов

______________________________
Видеокодек: Xvid
Битрейт видео: ~2134 Kbps
Размер кадра: 720x304
Качество видео: HDRip с |BDRip 1080p|
Аудио 1: AC3, 6 ch, 384 Kbps..................Профессиональный (полное дублирование)
Аудио 2: AC3, 6 ch, 384 Kbps..................Авторский (одноголосый закадровый) А. Гаврилов
-

MI

General
Complete name : mad.max.beyond.thunderdome.HDRip.avi
Format : AVI
Format/Info : Audio Video Interleave
Format profile : OpenDML
File size : 2.18 GiB
Duration : 1h 46mn
Overall bit rate : 2 919 Kbps
Writing application : VirtualDubMod 1.5.10.2 (build 2542/release)
Writing library : VirtualDubMod build 2542/release
Video
ID : 0
Format : MPEG-4 Visual
Format profile : Advanced [email protected]
Format settings, BVOP : 1
Format settings, QPel : No
Format settings, GMC : No warppoints
Format settings, Matrix : Custom
Codec ID : XVID
Codec ID/Hint : XviD
Duration : 1h 46mn
Bit rate : 2 134 Kbps
Width : 720 pixels
Height : 304 pixels
Display aspect ratio : 2.35:1
Frame rate : 23.976 fps
Color space : YUV
Chroma subsampling : 4:2:0
Bit depth : 8 bits
Scan type : Progressive
Compression mode : Lossy
Bits/(Pixel*Frame) : 0.407
Stream size : 1.59 GiB (73%)
Writing library : XviD 73
Audio #1
ID : 1
Format : AC-3
Format/Info : Audio Coding 3
Mode extension : CM (complete main)
Format settings, Endianness : Big
Codec ID : 2000
Duration : 1h 46mn
Bit rate mode : Constant
Bit rate : 384 Kbps
Channel(s) : 6 channels
Channel positions : Front: L C R, Side: L R, LFE
Sampling rate : 48.0 KHz
Bit depth : 16 bits
Compression mode : Lossy
Delay relative to video : 2s 100ms
Stream size : 294 MiB (13%)
Alignment : Split accross interleaves
Interleave, duration : 42 ms (1.00 video frame)
Interleave, preload duration : 500 ms
Audio #2
ID : 2
Format : AC-3
Format/Info : Audio Coding 3
Mode extension : CM (complete main)
Format settings, Endianness : Big
Codec ID : 2000
Duration : 1h 46mn
Bit rate mode : Constant
Bit rate : 384 Kbps
Channel(s) : 6 channels
Channel positions : Front: L C R, Side: L R, LFE
Sampling rate : 48.0 KHz
Bit depth : 16 bits
Compression mode : Lossy
Delay relative to video : 2s 100ms
Stream size : 294 MiB (13%)
Alignment : Split accross interleaves
Interleave, duration : 42 ms (1.00 video frame)
Interleave, preload duration : 500 ms
-Скриншоты:
                 
Вне форума [Профиль] [ЛС]
Похожие темы
Форум Тема Автор Торрент Отв. Посл. сообщение
./templates/default/images/folder_dl.gif T Фильмы 2011-2016 Безумный Макс: Дорога ярости / Mad Max: Fury Road (Джордж Миллер / George Miller) [2015 г., боевик, фантастика, приключения, TS] Dub Clavik
1 | 0

1 | 1612

92

2016-01-02 08:06
Dracula Последнее
./templates/default/images/folder_dl.gif Зарубежное кино Безумный Макс: Дорога ярости / Mad Max: Fury Road (Джордж Миллер) [2015, BDRemux, H.264/1080p] Aikivas
1 | 0

0 | 525

19

2015-08-14 21:08
Aikivas Последнее
Показать сообщения:    
Ответить на тему

Текущее время: Сегодня 02:54

Часовой пояс: GMT + 3



Вы не можете начинать темы
Вы не можете отвечать на сообщения
Вы не можете редактировать свои сообщения
Вы не можете удалять свои сообщения
Вы не можете голосовать в опросах
Вы не можете прикреплять файлы к сообщениям
Вы не можете скачивать файлы