Сегодня идет свободное скачивание без начисления Download

Безумный Макс 2: Воин дороги [Режиссёрская версия] / Mad Max 2: The Road Warrior [Director's Cut] (Джордж Миллер / George Miller) (Фантастика, Боевик, 1981) HDRip

Ответить на тему
 
Автор
Сообщение

Omen ®

Стаж: 4 года 1 месяц

Сообщений: 194359

Торрент-статистика

Пост 03-Июн-2013 19:01

[Цитировать]

Безумный Макс 2: Воин дороги [Режиссёрская версия]
Mad Max 2: The Road Warrior [Director's Cut]

«When all that's left is one last chance, pray that he's still out there ... somewhere!»
- Русское название: Безумный Макс 2: Воин дороги [Режиссёрская версия]
Оригинальное название: Mad Max 2: The Road Warrior [Director's Cut]
Год выпуска: 1981
Жанр: Фантастика, Боевик
Перевод: Дублированный
субтитры: нет
Описание фильма:
Катастрофа пострашнее ядерной войны постигла нашу цивилизацию. Страшный энергетический кризис парализовал города, пути сообщения — одним словом, все. За топливо теперь дерутся любыми средствами. Потому, что там, где бензин, — там жизнь…
Одинокий водитель Макс как раз и бороздит пустоши далекой Австралии в поисках горючего. Повсюду брошенные жилища, машины, разный скарб. Наконец Макс находит станцию, превращенную в лагерь со складами горючего.
Исхудавшие, измученные люди как могут охраняют то, что им принадлежит. И вот, в довершение всех бед, на лагерь нападают враги, свирепые вояки под предводительством некоего Гумундуса, садиста и душегуба. И тогда Макс вступает в схватку…
Режиссер: Джордж Миллер / George Miller
Актеры: Мэл Гибсон /Mel Gibson/, Брюс Спенс /Bruce Spence/, Вернон Уэллс /Vernon Wells/, Майк Престон /Mike Preston/, Вирджиния Хей /Virginia Hey/, Дэвид Слингсби /David Slingsby/
Продолжительность: 01:35:30 (оригинал ~ 01:27:00)
18+
Дата мировой премьеры: 24 декабря 1981
Дата выхода DVD релиза: 7 апреля 2011, «ВС трейд»
Видеокодек: Xvid
Битрейт видео: ~949 kbps
Размер кадра: 688x288
Качество видео: HDRip
Аудиокодек: MP3 2.0
Битрейт аудио: 128 kbps

MediaInfo:

General
Format : AVI
Format/Info : Audio Video Interleave
File size : 742 MiB
Duration : 1h 35mn
Overall bit rate : 1 086 Kbps
Writing application : VirtualDubMod 1.5.10.2 (build 2540/release)
Writing library : VirtualDubMod build 2540/release
Video
ID : 0
Format : MPEG-4 Visual
Format profile : Advanced [email protected]
Format settings, BVOP : 1
Format settings, QPel : No
Format settings, GMC : No warppoints
Format settings, Matrix : Default (MPEG)
Codec ID : XVID
Codec ID/Hint : XviD
Duration : 1h 35mn
Bit rate : 949 Kbps
Width : 688 pixels
Height : 288 pixels
Display aspect ratio : 2.35:1
Frame rate : 23.976 fps
Color space : YUV
Chroma subsampling : 4:2:0
Bit depth : 8 bits
Scan type : Progressive
Compression mode : Lossy
Bits/(Pixel*Frame) : 0.200
Stream size : 648 MiB (87%)
Writing library : XviD 1.2.0.dev47 (UTC 2006-11-01)
Audio
ID : 1
Format : MPEG Audio
Format version : Version 1
Format profile : Layer 3
Codec ID : 55
Codec ID/Hint : MP3
Duration : 1h 35mn
Bit rate mode : Constant
Bit rate : 128 Kbps
Channel(s) : 2 channels
Sampling rate : 48.0 KHz
Compression mode : Lossy
Stream size : 87.4 MiB (12%)
Alignment : Aligned on interleaves
Interleave, duration : 42 ms (1.00 video frame)
Interleave, preload duration : 504 ms
Writing library : LAME3.97
Encoding settings : -m s -V 4 -q 2 -lowpass 17 -b 128

Extended Cut

Расширенная версия была получена путем врезания удаленных и расширенных сцен на свои места.
Скриншоты:
         
-
Вне форума [Профиль] [ЛС]
Похожие темы
Форум Тема Автор Торрент Отв. Посл. сообщение
./templates/default/images/folder_dl.gif T Фильмы 2011-2016 Безумный Макс: Дорога ярости / Mad Max: Fury Road (Джордж Миллер) [2015, фантастика, боевик, триллер, приключения, WEB-DLRip-AVC] [DUB] [LINE] + [AVO] (Матвеев) + [Eng] + [SUB] (Eng) maxkiller
1 | 0

2 | 946

35

2016-01-02 08:25
Dracula Последнее
Показать сообщения:    
Ответить на тему

Текущее время: Сегодня 05:07

Часовой пояс: GMT + 3



Вы не можете начинать темы
Вы не можете отвечать на сообщения
Вы не можете редактировать свои сообщения
Вы не можете удалять свои сообщения
Вы не можете голосовать в опросах
Вы не можете прикреплять файлы к сообщениям
Вы не можете скачивать файлы