Сегодня идет свободное скачивание без начисления Download

Сампо (1959) SATRip

Ответить на тему
 
Автор
Сообщение

Koralina ®

Стаж: 5 лет 3 месяца

Сообщений: 1433

Откуда: Lithuania

Торрент-статистика

Пост 04-Июн-2013 10:50

[Цитировать]

Сампо (1959) SATRip- Русское название: Сампо
Год выпуска: 1959
Жанр: Эпос, Сказка
Страна: СССР (Мосфильм), Финляндия (Суоми-Фильм)
Описание фильма:
Фильм-сказка по мотивам карело-финского эпоса "Калевала".
Анники, сестру вековечного кователя Ильмаринена, похищает злая чародейка Лоухи, хозяйка сумрачной Похъёлы. Ее жених и возлюбленный — Лемминкяйнен, вместе с кузнецом Ильмариненом, отправляется за ней в далекую Похъёлу. Для того чтобы вернуть Анники, они должны выполнить несколько условий хитрой Лоухи. Одно из условий — выковать чудесную мельницу Сампо…
Режиссер: Александр Птушко, Холгер Харривирта
Актеры: Урхо Сомерсальми, Анна Орочко, Андрус Ошинь, Эве Киви, Иван Воронов, Ада Войцик, Георгий Милляр, Михаил Трояновский, Леннарт Лаурамаа, Тойво Ромппайнен, Эмма Хиппеляйнен, Н. Коллен, Анатолий Баранцев, Виктор Уральский, Владимир Борискин, Пётр Модников, Валентин Брылеев, Александр Мачерет, А. Ленская, Кууно Севандер, Еева Мюрюляйнен
Продолжительность: 01:34:45

Релиз группа:
Видеокодек: Xvid
Битрейт видео: ~1 891 Kbps
Размер кадра: 688х384
Качество видео: SATRip
Аудиокодек: MP3 2ch
Битрейт аудио: 128 Kbps
Сэмпл: Ссылка

Медиаинфо

Format : AVI
Format/Info : Audio Video Interleave
File size : 1.34 GiB
Duration : 1h 34mn
Overall bit rate : 2 029 Kbps
Director : CrimeanFox
Writing application : VirtualDubMod 1.5.10.3 | www.virtualdub-fr.org || (build 2550/release)
Writing library : VirtualDub build 32706/release
Copyright : RG.Vanila.films
Video
ID : 0
Format : MPEG-4 Visual
Format profile : Advanced [email protected]
Format settings, BVOP : 2
Format settings, QPel : No
Format settings, GMC : No warppoints
Format settings, Matrix : Default (MPEG)
Codec ID : XVID
Codec ID/Hint : XviD
Duration : 1h 34mn
Bit rate : 1 891 Kbps
Width : 688 pixels
Height : 384 pixels
Display aspect ratio : 16:9
Frame rate : 25.000 fps
Color space : YUV
Chroma subsampling : 4:2:0
Bit depth : 8 bits
Scan type : Progressive
Compression mode : Lossy
Bits/(Pixel*Frame) : 0.286
Stream size : 1.25 GiB (93%)
Writing library : XviD 65
Audio
ID : 1
Format : MPEG Audio
Format version : Version 1
Format profile : Layer 3
Codec ID : 55
Codec ID/Hint : MP3
Duration : 1h 34mn
Bit rate mode : Constant
Bit rate : 128 Kbps
Channel(s) : 2 channels
Sampling rate : 48.0 KHz
Compression mode : Lossy
Stream size : 86.8 MiB (6%)
Alignment : Aligned on interleaves
Interleave, duration : 40 ms (1.00 video frame)
Interleave, preload duration : 504 ms
Writing library : LAME3.99r
Encoding settings : -m s -V 4 -q 2 -lowpass 17 -b 128

Доп.информация:

«Сампо» — фильм совместного советско-финского производства режиссёра Александра Птушко. Фильм-сказка по мотивам карело-финского эпоса «Калевала». Снят на русском и финском языках. В американском прокате фильм был значительно перемонтирован и выпущен под названием «The Day the Earth Froze» («День, когда Земля замёрзла»)
Вопреки распространённому мнению фильм не дублировался на финский язык, а снимался сразу на двух языках (русском и финском) — «на две камеры». Каждая сцена снималась сначала на одном языке, а потом на другом. Поэтому, например, невозможно провести покадровое детальное сравнение русской и финской версии (некоторые сцены и вовсе идут под другим ракурсом). В последней больше крупных планов, но в то же время некоторые эпизоды опущены, отсутствует вступление об Элиасе Лённроте (в целом финский вариант короче где-то на 5 минут).
Также интересен тот факт, что при съёмке сцен на финском языке все советские актеры говорили по-фински. Это можно заметить по артикуляции актеров, хотя озвучивали финскую версию фильма всё же финские актеры (у Анны Орочко и Ивана Воронова другие голоса).
Скриншоты:
         
         

_________________
Вне форума [Профиль] [ЛС]
Показать сообщения:    
Ответить на тему

Текущее время: Сегодня 13:12

Часовой пояс: GMT + 3



Вы не можете начинать темы
Вы не можете отвечать на сообщения
Вы не можете редактировать свои сообщения
Вы не можете удалять свои сообщения
Вы не можете голосовать в опросах
Вы не можете прикреплять файлы к сообщениям
Вы не можете скачивать файлы