Сегодня идет свободное скачивание без начисления Download

Человек дождя / Rain Man (1988) HDRip

Ответить на тему
 
Автор
Сообщение

UndegraundMen ®

Стаж: 3 года 9 месяцев

Сообщений: 28329

Торрент-статистика

Пост 05-Июн-2013 04:19

[Цитировать]

Человек дождя / Rain Man (1988) HDRip- Русское название: Человек дождя
Оригинальное название: Rain Man
Год выпуска: 1988
Жанр: Драма
Описание фильма:
У Чарли, грубоватого и эгоистичного молодого повесы, в наследство от отца остались лишь розовые кусты да «Бьюик» 49-го года. Внезапным «сюрпризом» для него стало открытие того, что львиная доля наследства оставлена отцом его больному аутизмом брату Раймонду.
Задавшись целью отобрать свою «справедливую долю» семейного достояния, Чарли похищает старшего брата и держит его заложником. Но то, что было задумано им из эгоизма, перерастает в волшебную одиссею дружбы и самоосмысления, которая разводит границы обособленного мирка Раймонда, а Чарли позволяет вырваться из оков своей некогда бесчувственной души.

Режиссер: Барри Левинсон / Barry Levinson
Актеры: Дастин Хоффман, Том Круз, Валерия Голино, Джералд Р. Молен, Джек Мёрдок, Майкл Д. Робертс, Ральф Сеймур, Люсинда Дженни, Бонни Хант, Ким Робиллард
Продолжительность: 02:13:50
Перевод: Дублированный
Язык субтитров: Отсутствуют
Дата мировой премьеры: 12 декабря 1988
Дата выхода DVD релиза: 23 июля 2009
Видеокодек: Xvid
Битрейт видео: ~700 kbps avg
Размер кадра: 656x352
Качество видео: HDRip
Аудиокодек: MP3, 2.0
Битрейт аудио: ~112.00 kbps avg

MediaInfo

Общее
Полное имя : D:\Торренты на раздачу\Человек дождя\Rain_Man.avi
Формат : AVI
Формат/Информация : Audio Video Interleave
Размер файла : 787 Мбайт
Продолжительность : 2 ч. 13 м.
Общий поток : 822 Кбит/сек
Программа кодирования : VirtualDubMod 1.5.10.2 (build 2540/release)
Библиотека кодирования : VirtualDubMod build 2540/release
Видео
Идентификатор : 0
Формат : MPEG-4 Visual
Профиль формата : Advanced [email protected]
Параметр BVOP формата : 2
Параметр QPel формата : Нет
Параметр GMC формата : Без точки перехода
Параметр матрицы формата : Выборочная
Идентификатор кодека : XVID
Идентификатор кодека/Подсказка : XviD
Продолжительность : 2 ч. 13 м.
Битрейт : 701 Кбит/сек
Ширина : 656 пикселей
Высота : 352 пикселя
Соотношение сторон : 1,85:1
Частота кадров : 23,976 кадра/сек
Цветовое пространство : YUV
Субдискретизация насыщенности : 4:2:0
Битовая глубина : 8 бит
Тип развёртки : Прогрессивная
Метод сжатия : С потерями
Бит/(Пиксели*Кадры) : 0.127
Размер потока : 671 Мбайт (85%)
Библиотека кодирования : XviD 1.2.1 (UTC 2008-12-04)
Аудио
Идентификатор : 1
Формат : MPEG Audio
Версия формата : Version 1
Профиль формата : Layer 3
Режим : Joint stereo
Расширение режима : MS Stereo
Идентификатор кодека : 55
Идентификатор кодека/Подсказка : MP3
Продолжительность : 2 ч. 13 м.
Вид битрейта : Постоянный
Битрейт : 112 Кбит/сек
Каналы : 2 канала
Частота : 48,0 КГц
Метод сжатия : С потерями
Размер потока : 107 Мбайт (14%)
Выравнивание : Разделение по промежуткам
Продолжительность промежутка : 42 мс. (1,00 видеокадр)
Время предзагрузки промежутка : 500 мс.
Скриншоты:
         
Вне форума [Профиль] [ЛС]
Похожие темы
Форум Тема Автор Торрент Отв. Посл. сообщение
./templates/default/images/folder_dl.gif Зарубежное кино Железный человек 3 / Iron Man 3 (Шейн Блэк / Shane Black) [2013, США, Китай, фантастика, боевик, комикс, BDRip 720p] Dub + Sub Rus, Eng + Original Eng Omen
1 | 0

0 | 306

10

2014-01-22 05:00
Omen Последнее
./templates/default/images/folder_dl.gif T Фильмы 2001-2010 Новый Человек-паук: Высокое напряжение / The Amazing Spider-Man 2 (Марк Уэбб) [2014 г., фэнтези, боевик, приключения, WEB-DLRip] DUB |Чистый звук Theseus
1 | 0

0 | 1411

55

2014-07-27 00:34
Theseus Последнее
./templates/default/images/folder_dl.gif Медицина и Здоровье Эдуард Алкамо | Атлас анатомии человека (2008) [DJVU] Omen
2 | 0

0 | 682

9

2014-11-27 09:02
Omen Последнее
./templates/default/images/folder_dl.gif Обучающее видео Сергей Вячеславович Савельев - Управление мозгом человека [2015, лекция, наука, морфология, эволюция, CAMRip, rus] Omen
1 | 0

0 | 788

15

2015-04-20 18:00
Omen Последнее
./templates/default/images/folder_dl.gif Приключения, детектив, боевик, триллер Сименон Жорж - Комиссар Мегрэ 101, Мегрэ и одинокий человек [Третьякова Лариса, 2015 г., 96 kbps, MP3] Omen
1 | 0

0 | 331

7

2015-06-11 00:00
Omen Последнее
./templates/default/images/folder_dl.gif Фильмы 2011-2016 Человек-муравей / Ant-Man (Пейтон Рид) [2015 г., фантастика, боевик, комедия, WEB-DLRip] DUB |iTunes Theseus
1 | 0

2 | 442

7

2016-01-02 08:15
Dracula Последнее
./templates/default/images/folder_dl.gif Обучающее видео Происхождение Человека / Human Origins Fall B 2015 [2015, Палеоантропология, WEBRip, ENG] (Видеоурок) Omen
1 | 0

0 | 352

6

2015-12-02 12:57
Omen Последнее
./templates/default/images/folder_dl.gif Компьютерная литература Михаил Пантаев | Матанализ с человеческим лицом, или Как выжить после предельного перехода. Полный курс математического анализа. Том 2 (2016) [PDF] moralis
2 | 0

0 | 290

7

2016-03-09 21:50
moralis Последнее
./templates/default/images/folder_dl.gif Учебники, справочники, энциклопедии и словари Михаил Пантаев | Матанализ с человеческим лицом, или Как выжить после предельного перехода. Полный курс математического анализа. Том 1 (2015) [PDF] moralis
2 | 0

0 | 309

4

2016-03-09 21:51
moralis Последнее
./templates/default/images/folder_dl.gif Домоводство, Хобби Ирина Блохина | Всё, что должен знать каждый образованный человек (2016) [PDF] moralis
1 | 0

0 | 330

10

2016-04-19 21:55
moralis Последнее
Показать сообщения:    
Ответить на тему

Текущее время: Сегодня 20:24

Часовой пояс: GMT + 3



Вы не можете начинать темы
Вы не можете отвечать на сообщения
Вы не можете редактировать свои сообщения
Вы не можете удалять свои сообщения
Вы не можете голосовать в опросах
Вы не можете прикреплять файлы к сообщениям
Вы не можете скачивать файлы