Сегодня идет свободное скачивание без начисления Download

Человек дождя / Rain Man (1988) HDRip

Ответить на тему
 
Автор
Сообщение

UndegraundMen ®

Стаж: 4 года 2 месяца

Сообщений: 26522

Торрент-статистика

Пост 05-Июн-2013 04:19

[Цитировать]

Человек дождя / Rain Man (1988) HDRip- Русское название: Человек дождя
Оригинальное название: Rain Man
Год выпуска: 1988
Жанр: Драма
Описание фильма:
У Чарли, грубоватого и эгоистичного молодого повесы, в наследство от отца остались лишь розовые кусты да «Бьюик» 49-го года. Внезапным «сюрпризом» для него стало открытие того, что львиная доля наследства оставлена отцом его больному аутизмом брату Раймонду.
Задавшись целью отобрать свою «справедливую долю» семейного достояния, Чарли похищает старшего брата и держит его заложником. Но то, что было задумано им из эгоизма, перерастает в волшебную одиссею дружбы и самоосмысления, которая разводит границы обособленного мирка Раймонда, а Чарли позволяет вырваться из оков своей некогда бесчувственной души.

Режиссер: Барри Левинсон / Barry Levinson
Актеры: Дастин Хоффман, Том Круз, Валерия Голино, Джералд Р. Молен, Джек Мёрдок, Майкл Д. Робертс, Ральф Сеймур, Люсинда Дженни, Бонни Хант, Ким Робиллард
Продолжительность: 02:13:50
Перевод: Дублированный
Язык субтитров: Отсутствуют
Дата мировой премьеры: 12 декабря 1988
Дата выхода DVD релиза: 23 июля 2009
Видеокодек: Xvid
Битрейт видео: ~700 kbps avg
Размер кадра: 656x352
Качество видео: HDRip
Аудиокодек: MP3, 2.0
Битрейт аудио: ~112.00 kbps avg

MediaInfo

Общее
Полное имя : D:\Торренты на раздачу\Человек дождя\Rain_Man.avi
Формат : AVI
Формат/Информация : Audio Video Interleave
Размер файла : 787 Мбайт
Продолжительность : 2 ч. 13 м.
Общий поток : 822 Кбит/сек
Программа кодирования : VirtualDubMod 1.5.10.2 (build 2540/release)
Библиотека кодирования : VirtualDubMod build 2540/release
Видео
Идентификатор : 0
Формат : MPEG-4 Visual
Профиль формата : Advanced [email protected]
Параметр BVOP формата : 2
Параметр QPel формата : Нет
Параметр GMC формата : Без точки перехода
Параметр матрицы формата : Выборочная
Идентификатор кодека : XVID
Идентификатор кодека/Подсказка : XviD
Продолжительность : 2 ч. 13 м.
Битрейт : 701 Кбит/сек
Ширина : 656 пикселей
Высота : 352 пикселя
Соотношение сторон : 1,85:1
Частота кадров : 23,976 кадра/сек
Цветовое пространство : YUV
Субдискретизация насыщенности : 4:2:0
Битовая глубина : 8 бит
Тип развёртки : Прогрессивная
Метод сжатия : С потерями
Бит/(Пиксели*Кадры) : 0.127
Размер потока : 671 Мбайт (85%)
Библиотека кодирования : XviD 1.2.1 (UTC 2008-12-04)
Аудио
Идентификатор : 1
Формат : MPEG Audio
Версия формата : Version 1
Профиль формата : Layer 3
Режим : Joint stereo
Расширение режима : MS Stereo
Идентификатор кодека : 55
Идентификатор кодека/Подсказка : MP3
Продолжительность : 2 ч. 13 м.
Вид битрейта : Постоянный
Битрейт : 112 Кбит/сек
Каналы : 2 канала
Частота : 48,0 КГц
Метод сжатия : С потерями
Размер потока : 107 Мбайт (14%)
Выравнивание : Разделение по промежуткам
Продолжительность промежутка : 42 мс. (1,00 видеокадр)
Время предзагрузки промежутка : 500 мс.
Скриншоты:
         
Вне форума [Профиль] [ЛС]
Похожие темы
Форум Тема Автор Торрент Отв. Посл. сообщение
./templates/default/images/folder_dl.gif Психология, Тренинг, Саморазвитие В.П.Шейнов | Скрытое управление человеком. Психология манипулирования [2006] [PDF] sashau
1 | 0

0 | 915

41

2012-12-29 17:42
sashau Последнее
./templates/default/images/folder_dl.gif Разное А.А. Юдина | Человек-волк и Зигмунд Фрейд [1996] [DOC] UndegraundMen
0 | 1

0 | 784

2

2013-08-17 23:11
UndegraundMen Последнее
./templates/default/images/folder_dl.gif Разное Владимир Адамчик | Манипулятор. Секреты успешной манипуляции человеком [2013] [FB2] UndegraundMen
1 | 0

0 | 1429

11

2013-09-06 17:00
UndegraundMen Последнее
./templates/default/images/folder_dl.gif Растровые клипарты Растровый клипарт - 3D человечки-работяги 2 / 3D hardworking men 2 [JPEG] UndegraundMen
1 | 0

0 | 11862

31

2013-10-05 23:18
UndegraundMen Последнее
./templates/default/images/folder_dl.gif Сатира, Юмор Андрей Данилов | Homo Navicus, человек флота (2012) [FB2] Aikivas
1 | 0

0 | 486

1

2015-08-14 20:58
Aikivas Последнее
./templates/default/images/folder_dl.gif Обучающее видео Происхождение Человека / Human Origins Fall B 2015 [2015, Палеоантропология, WEBRip, ENG] (Видеоурок) Omen
1 | 0

0 | 536

8

2015-12-02 12:57
Omen Последнее
./templates/default/images/folder_dl.gif Обучающее видео Модель Сверхобучения: Человек XXI века. Полный курс 4 блока (2015-2016) Omen
1 | 0

0 | 277

6

2016-12-20 01:00
Omen Последнее
./templates/default/images/folder_dl.gif Обучающая и развивающая литература, учебники Г. Л. Билич - Анатомия человека. Большой популярный атлас [2015, PDF, RUS] XP1971
1 | 0

0 | 1845

10

2017-01-11 12:10
XP1971 Последнее
Показать сообщения:    
Ответить на тему

Текущее время: Сегодня 02:25

Часовой пояс: GMT + 3



Вы не можете начинать темы
Вы не можете отвечать на сообщения
Вы не можете редактировать свои сообщения
Вы не можете удалять свои сообщения
Вы не можете голосовать в опросах
Вы не можете прикреплять файлы к сообщениям
Вы не можете скачивать файлы