Сегодня идет свободное скачивание без начисления Download

Человек дождя / Rain Man (1988) HDRip

Ответить на тему
 
Автор
Сообщение

UndegraundMen ®

Стаж: 4 года 6 месяцев

Сообщений: 26499

Торрент-статистика

Пост 05-Июн-2013 04:19

[Цитировать]

Человек дождя / Rain Man (1988) HDRip- Русское название: Человек дождя
Оригинальное название: Rain Man
Год выпуска: 1988
Жанр: Драма
Описание фильма:
У Чарли, грубоватого и эгоистичного молодого повесы, в наследство от отца остались лишь розовые кусты да «Бьюик» 49-го года. Внезапным «сюрпризом» для него стало открытие того, что львиная доля наследства оставлена отцом его больному аутизмом брату Раймонду.
Задавшись целью отобрать свою «справедливую долю» семейного достояния, Чарли похищает старшего брата и держит его заложником. Но то, что было задумано им из эгоизма, перерастает в волшебную одиссею дружбы и самоосмысления, которая разводит границы обособленного мирка Раймонда, а Чарли позволяет вырваться из оков своей некогда бесчувственной души.

Режиссер: Барри Левинсон / Barry Levinson
Актеры: Дастин Хоффман, Том Круз, Валерия Голино, Джералд Р. Молен, Джек Мёрдок, Майкл Д. Робертс, Ральф Сеймур, Люсинда Дженни, Бонни Хант, Ким Робиллард
Продолжительность: 02:13:50
Перевод: Дублированный
Язык субтитров: Отсутствуют
Дата мировой премьеры: 12 декабря 1988
Дата выхода DVD релиза: 23 июля 2009
Видеокодек: Xvid
Битрейт видео: ~700 kbps avg
Размер кадра: 656x352
Качество видео: HDRip
Аудиокодек: MP3, 2.0
Битрейт аудио: ~112.00 kbps avg

MediaInfo

Общее
Полное имя : D:\Торренты на раздачу\Человек дождя\Rain_Man.avi
Формат : AVI
Формат/Информация : Audio Video Interleave
Размер файла : 787 Мбайт
Продолжительность : 2 ч. 13 м.
Общий поток : 822 Кбит/сек
Программа кодирования : VirtualDubMod 1.5.10.2 (build 2540/release)
Библиотека кодирования : VirtualDubMod build 2540/release
Видео
Идентификатор : 0
Формат : MPEG-4 Visual
Профиль формата : Advanced [email protected]
Параметр BVOP формата : 2
Параметр QPel формата : Нет
Параметр GMC формата : Без точки перехода
Параметр матрицы формата : Выборочная
Идентификатор кодека : XVID
Идентификатор кодека/Подсказка : XviD
Продолжительность : 2 ч. 13 м.
Битрейт : 701 Кбит/сек
Ширина : 656 пикселей
Высота : 352 пикселя
Соотношение сторон : 1,85:1
Частота кадров : 23,976 кадра/сек
Цветовое пространство : YUV
Субдискретизация насыщенности : 4:2:0
Битовая глубина : 8 бит
Тип развёртки : Прогрессивная
Метод сжатия : С потерями
Бит/(Пиксели*Кадры) : 0.127
Размер потока : 671 Мбайт (85%)
Библиотека кодирования : XviD 1.2.1 (UTC 2008-12-04)
Аудио
Идентификатор : 1
Формат : MPEG Audio
Версия формата : Version 1
Профиль формата : Layer 3
Режим : Joint stereo
Расширение режима : MS Stereo
Идентификатор кодека : 55
Идентификатор кодека/Подсказка : MP3
Продолжительность : 2 ч. 13 м.
Вид битрейта : Постоянный
Битрейт : 112 Кбит/сек
Каналы : 2 канала
Частота : 48,0 КГц
Метод сжатия : С потерями
Размер потока : 107 Мбайт (14%)
Выравнивание : Разделение по промежуткам
Продолжительность промежутка : 42 мс. (1,00 видеокадр)
Время предзагрузки промежутка : 500 мс.
Скриншоты:
         
Вне форума [Профиль] [ЛС]
Похожие темы
Форум Тема Автор Торрент Отв. Посл. сообщение
./templates/default/images/folder_dl.gif Философия, Религия, Эзотерика, Публицистика Георгий Мандзаридис | Обожение человека [2010] [DJVU] UndegraundMen
0 | 1

0 | 463

0

2013-03-04 22:26
UndegraundMen Последнее
./templates/default/images/folder_dl.gif Философия, Религия, Эзотерика, Публицистика Флоренцо Эмилио Реати | Бог в XX веке: Человек - путь к пониманию Бога. Западное богословие XX века [2002] [FB2] UndegraundMen
0 | 1

0 | 339

0

2013-06-13 03:01
UndegraundMen Последнее
./templates/default/images/folder_dl.gif Философия, Религия, Эзотерика, Публицистика Владимир Духович, Александр Молчанов | Начало жизни и внутриутробное развитие человека: от биологии к биоэтике [2013] [PDF] UndegraundMen
0 | 1

0 | 567

0

2013-07-26 11:06
UndegraundMen Последнее
./templates/default/images/folder_dl.gif Философия, Религия, Эзотерика, Публицистика Иеромонах Георгий (Шестун) | Православные традиции духовно-нравственного становления человека (2001) [RTF] sashau
0 | 1

0 | 534

1

2014-07-23 12:47
sashau Последнее
./templates/default/images/folder_dl.gif Обучающее видео Сергей Вячеславович Савельев - Управление мозгом человека [2015, лекция, наука, морфология, эволюция, CAMRip, rus] Omen
1 | 0

0 | 1223

19

2015-04-20 18:00
Omen Последнее
./templates/default/images/folder_dl.gif Философия, Религия, Эзотерика, Публицистика История философии - Болдырев А. И. - Проблема человека в русской философии XVIII века [1986, DjVu, RUS] Omen
1 | 0

0 | 173

2

2015-05-09 09:46
Omen Последнее
./templates/default/images/folder_dl.gif Философия, Религия, Эзотерика, Публицистика Кули Ч. Х. - Человеческая природа и социальный порядок [2000, DjVu, RUS] Omen
1 | 0

0 | 202

2

2015-05-28 00:00
Omen Последнее
./templates/default/images/folder_dl.gif Философия, Религия, Эзотерика, Публицистика Библиотека философской мысли - Рассел Б. - Человеческое познание. Его сфера и границы [2000, DjVu, RUS] Omen
1 | 0

0 | 180

1

2015-09-25 12:01
Omen Последнее
./templates/default/images/folder_dl.gif Философия, Религия, Эзотерика, Публицистика Флоренцо Эмилио Реати | Бог в XX веке: Человек - путь к пониманию Бога. Западное богословие XX века (2002) [PDF, FB2] Omen
0 | 1

0 | 100

0

2015-10-03 20:39
Omen Последнее
./templates/default/images/folder_dl.gif Обучающее видео Происхождение Человека / Human Origins Fall B 2015 [2015, Палеоантропология, WEBRip, ENG] (Видеоурок) Omen
3 | 0

0 | 626

9

2015-12-02 12:57
Omen Последнее
Показать сообщения:    
Ответить на тему

Текущее время: Сегодня 17:56

Часовой пояс: GMT + 3



Вы не можете начинать темы
Вы не можете отвечать на сообщения
Вы не можете редактировать свои сообщения
Вы не можете удалять свои сообщения
Вы не можете голосовать в опросах
Вы не можете прикреплять файлы к сообщениям
Вы не можете скачивать файлы