Сегодня идет свободное скачивание без начисления Download

Человек дождя / Rain Man (1988) HDRip

Ответить на тему
 
Автор
Сообщение

UndegraundMen ®

Стаж: 4 года 7 месяцев

Сообщений: 26499

Торрент-статистика

Пост 05-Июн-2013 04:19

[Цитировать]

Человек дождя / Rain Man (1988) HDRip- Русское название: Человек дождя
Оригинальное название: Rain Man
Год выпуска: 1988
Жанр: Драма
Описание фильма:
У Чарли, грубоватого и эгоистичного молодого повесы, в наследство от отца остались лишь розовые кусты да «Бьюик» 49-го года. Внезапным «сюрпризом» для него стало открытие того, что львиная доля наследства оставлена отцом его больному аутизмом брату Раймонду.
Задавшись целью отобрать свою «справедливую долю» семейного достояния, Чарли похищает старшего брата и держит его заложником. Но то, что было задумано им из эгоизма, перерастает в волшебную одиссею дружбы и самоосмысления, которая разводит границы обособленного мирка Раймонда, а Чарли позволяет вырваться из оков своей некогда бесчувственной души.

Режиссер: Барри Левинсон / Barry Levinson
Актеры: Дастин Хоффман, Том Круз, Валерия Голино, Джералд Р. Молен, Джек Мёрдок, Майкл Д. Робертс, Ральф Сеймур, Люсинда Дженни, Бонни Хант, Ким Робиллард
Продолжительность: 02:13:50
Перевод: Дублированный
Язык субтитров: Отсутствуют
Дата мировой премьеры: 12 декабря 1988
Дата выхода DVD релиза: 23 июля 2009
Видеокодек: Xvid
Битрейт видео: ~700 kbps avg
Размер кадра: 656x352
Качество видео: HDRip
Аудиокодек: MP3, 2.0
Битрейт аудио: ~112.00 kbps avg

MediaInfo

Общее
Полное имя : D:\Торренты на раздачу\Человек дождя\Rain_Man.avi
Формат : AVI
Формат/Информация : Audio Video Interleave
Размер файла : 787 Мбайт
Продолжительность : 2 ч. 13 м.
Общий поток : 822 Кбит/сек
Программа кодирования : VirtualDubMod 1.5.10.2 (build 2540/release)
Библиотека кодирования : VirtualDubMod build 2540/release
Видео
Идентификатор : 0
Формат : MPEG-4 Visual
Профиль формата : Advanced [email protected]
Параметр BVOP формата : 2
Параметр QPel формата : Нет
Параметр GMC формата : Без точки перехода
Параметр матрицы формата : Выборочная
Идентификатор кодека : XVID
Идентификатор кодека/Подсказка : XviD
Продолжительность : 2 ч. 13 м.
Битрейт : 701 Кбит/сек
Ширина : 656 пикселей
Высота : 352 пикселя
Соотношение сторон : 1,85:1
Частота кадров : 23,976 кадра/сек
Цветовое пространство : YUV
Субдискретизация насыщенности : 4:2:0
Битовая глубина : 8 бит
Тип развёртки : Прогрессивная
Метод сжатия : С потерями
Бит/(Пиксели*Кадры) : 0.127
Размер потока : 671 Мбайт (85%)
Библиотека кодирования : XviD 1.2.1 (UTC 2008-12-04)
Аудио
Идентификатор : 1
Формат : MPEG Audio
Версия формата : Version 1
Профиль формата : Layer 3
Режим : Joint stereo
Расширение режима : MS Stereo
Идентификатор кодека : 55
Идентификатор кодека/Подсказка : MP3
Продолжительность : 2 ч. 13 м.
Вид битрейта : Постоянный
Битрейт : 112 Кбит/сек
Каналы : 2 канала
Частота : 48,0 КГц
Метод сжатия : С потерями
Размер потока : 107 Мбайт (14%)
Выравнивание : Разделение по промежуткам
Продолжительность промежутка : 42 мс. (1,00 видеокадр)
Время предзагрузки промежутка : 500 мс.
Скриншоты:
         
Вне форума [Профиль] [ЛС]
Похожие темы
Форум Тема Автор Торрент Отв. Посл. сообщение
./templates/default/images/folder_dl.gif Обучающая и научно-популярная литература Фромм Эрих - Душа человека, её способность к добру и злу [Евгений Терновский, 2015 г., 96 kbps, MP3] Omen
1 | 0

0 | 417

4

2015-07-20 18:08
Omen Последнее
./templates/default/images/folder_dl.gif Обучающая и научно-популярная литература Фромм Эрих - Концепция человека у Карла Маркса. [Терновский Евгений, 2015 г., 96 kbps, MP3] Omen
1 | 0

0 | 437

1

2015-07-21 09:00
Omen Последнее
./templates/default/images/folder_dl.gif Психология, Тренинг, Саморазвитие Philosophy - Фромм Э. - Бегство от свободы. Человек для себя [2006, PDF/DjVu, RUS] Omen
1 | 0

0 | 290

0

2015-10-27 12:02
Omen Последнее
./templates/default/images/folder_dl.gif Обучающее видео Происхождение Человека / Human Origins Fall B 2015 [2015, Палеоантропология, WEBRip, ENG] (Видеоурок) Omen
2 | 0

0 | 659

9

2015-12-02 12:57
Omen Последнее
./templates/default/images/folder_dl.gif Компьютерная литература Михаил Пантаев | Матанализ с человеческим лицом, или Как выжить после предельного перехода. Полный курс математического анализа. Том 2 (2016) [PDF] moralis
1 | 0

0 | 884

10

2016-03-09 21:50
moralis Последнее
./templates/default/images/folder_dl.gif Справочники, энциклопедии и словари Михаил Пантаев | Матанализ с человеческим лицом, или Как выжить после предельного перехода. Полный курс математического анализа. Том 1 (2015) [PDF] moralis
1 | 0

0 | 831

7

2016-03-09 21:51
moralis Последнее
./templates/default/images/folder_dl.gif Психология, Тренинг, Саморазвитие Мыслители XX века - Фромм Э. - Анатомия человеческой деструктивности [1994, PDF/DjVu, RUS] Omen
1 | 0

0 | 274

0

2016-04-04 09:33
Omen Последнее
./templates/default/images/folder_dl.gif Обучающая и научно-популярная литература Фромм Эрих - Душа человека [Терновский Евгений, 2015 г., 96 kbps, MP3] Omen
1 | 0

0 | 563

0

2016-05-18 18:00
Omen Последнее
./templates/default/images/folder_dl.gif Психология, Тренинг, Саморазвитие Grof S., Halifax J. / Гроф С, Хэдифакс Аж. - The human encounter with death / Человек перед лицом смерти [1996, PDF, RUS] Omen
1 | 0

0 | 225

0

2016-07-16 01:00
Omen Последнее
./templates/default/images/folder_dl.gif Психология, Тренинг, Саморазвитие Grof S. / Гроф С. - Realms Of The Human Unconscious / Области человеческого бессознательного [1994, DjVu, RUS] Omen
1 | 0

0 | 246

0

2016-07-16 01:00
Omen Последнее
Показать сообщения:    
Ответить на тему

Текущее время: Сегодня 16:02

Часовой пояс: GMT + 3



Вы не можете начинать темы
Вы не можете отвечать на сообщения
Вы не можете редактировать свои сообщения
Вы не можете удалять свои сообщения
Вы не можете голосовать в опросах
Вы не можете прикреплять файлы к сообщениям
Вы не можете скачивать файлы