Сегодня идет свободное скачивание без начисления Download

Генеральская дочь / The General's Daughter (Саймон Уэст) (триллер, драма, криминал, детектив, военный, 1999) HDRip

Ответить на тему
 
Автор
Сообщение

Omen ®

Стаж: 4 года 1 месяц

Сообщений: 194390

Торрент-статистика

Пост 08-Июн-2013 16:31

[Цитировать]

Генеральская дочь
The General's Daughter
- «Разберись во лжи»
- Русское название: Генеральская дочь
Оригинальное название: The General's Daughter
Год выпуска: 1999
Производство: Германия, США
Жанр: триллер, драма, криминал, детектив, военный-Описание фильма: Убийство всегда чудовищно. Особенно если убита молодая и красивая женщина. Тем более, если эта женщина — офицер вооруженных сил США и дочь прославленного генерала. В американской армии не любят «выносить сор из избы». Все внутренние проблемы решаются за хорошо закрытыми дверями. Поэтому расследование этого загадочного убийства поручили военному следователю Полу Бреннеру.
Бреннер — опытный профессионал, на счету которого немало сложнейших дел. Во время вьетнамской войны он служил под началом отца убитой, поэтому раскрытие этого преступления для него вопрос чести. Но постепенно и без того уже темное дело начинает обрастать жуткими подробностями. Чтобы найти убийцу, Бреннер должен распутать клубок страшных тайн и скрытых ужасных страстей, блуждая по мрачному лабиринту жизни и смерти.-Режиссер: Саймон Уэст- Актеры: Джон Траволта, Мэделин Стоу, Джеймс Кромуэлл, Тимоти Хаттон, Лесли Стефансон, Дэниэл фон Барген, Кларенс Уильямс III, Джеймс Вудс, Питер Вайретер, Марк Бун Джуниор.-Продолжительность: 01:56:24
Перевод: Профессиональный (многоголосый, закадровый) - НТВ+
Язык субтитров: отсутствуют
-
-Дата мировой премьеры: ........................................15 июня 1999
Дата российской премьеры: ....................................11 ноября 1999, «Ист-Вест»
Дата выхода DVD релиза: .......................................2 марта 2010, «Юниверсал Пикчерс Рус»-Рейтинг MPAA: Рейтинг R - Детям до 17 лет обязательно присутствие родителей
-Видеокодек: XviD
Битрейт видео: ~758 Кбит/с
Размер кадра: 688x288
Качество видео: HDRip
Аудиокодек: MP3, 2.0
Битрейт аудио: 128 Кбит/с
-

MediaInfo

Complete name : D:\Видео\The.General's.Daughter.1999_HDRip.avi
Format : AVI
Format/Info : Audio Video Interleave
File size : 745 MiB
Duration : 1h 56mn
Overall bit rate : 895 Kbps
Writing application : VirtualDubMod 1.5.10.3 | www.virtualdub-fr.org || (build 2550/release)
Writing library : VirtualDubMod build 2550/release
Video
ID : 0
Format : MPEG-4 Visual
Format profile : Advanced [email protected]
Format settings, BVOP : 1
Format settings, QPel : No
Format settings, GMC : No warppoints
Format settings, Matrix : Custom
Codec ID : XVID
Codec ID/Hint : XviD
Duration : 1h 56mn
Bit rate : 758 Kbps
Width : 688 pixels
Height : 288 pixels
Display aspect ratio : 2.40:1
Frame rate : 23.976 fps
Color space : YUV
Chroma subsampling : 4:2:0
Bit depth : 8 bits
Scan type : Progressive
Compression mode : Lossy
Bits/(Pixel*Frame) : 0.160
Stream size : 631 MiB (85%)
Writing library : XviD 73
Audio
ID : 1
Format : MPEG Audio
Format version : Version 1
Format profile : Layer 3
Codec ID : 55
Codec ID/Hint : MP3
Duration : 1h 56mn
Bit rate mode : Constant
Bit rate : 128 Kbps
Channel(s) : 2 channels
Sampling rate : 48.0 KHz
Compression mode : Lossy
Stream size : 107 MiB (14%)
Alignment : Aligned on interleaves
Interleave, duration : 42 ms (1.00 video frame)
Interleave, preload duration : 504 ms
Writing library : LAME3.99r
Encoding settings : -m s -V 4 -q 2 -lowpass 17 -b 128

Знаете ли вы, что...

  • Во время обыска в комнате Элизабет находят её кассеты с извращениями, Пол Бреннер говорил: «Могу поспорить, что здесь не «Том и Джерри»». В начале по сценарию эти слова не были предусмотрены. При съёмках Джон Траволта, по слухам, сказал: «Здесь явно не мультики». Смысл фразы понравился режиссёру, и он добавил выражение в сценарий.

Рецензия на КиноПоиске от ProActor

«Убийство? Изнасилование? — Хуже!»
Не совсем правильно сравнивать «Генеральскую дочь» с фильмом, который вышел четырьмя годами позднее, но этот триллер-детектив больше всего похож именно на «Базу Клейтон» 2003-го, и наоборот. У Джона Траволты за 90-е каких только персонажей не было, и практически все удались. Роль военного следователя Пола Бреннера — не исключение, и даже больше — это пример плохого хорошего парня, который ради принципов и справедливости даже не прочь чуть-чуть пренебречь законом и непременными пафосными штампами, сопровождающими очередные военные интрижки. В Голливуде без них никуда, и пожалуй, только в американских фильмах они иногда даже уместны.
Главному герою с симпатичной напарницей в исполнении Мэдлин Стоу предстоит разбираться в деле об убийстве дочери генерала. Понятное дело, что даже таким специалистам на каждом шагу будут пускать пыль в глаза, врать напрямую, да еще и пытаться убрать с дороги, куда же без этого! И там, где обычный сыщик пожелал бы поскорее закрыть дело и оставить генерала в покое, следователь Бреннер все же докопается до истины, чего бы это ни стоило. А все потому, что он не подчиняется общепринятым правилам и всегда делает по своему. На самом деле, не будь он в официальной должности, вполне возможно, что раскрыл бы убийцу в первые же десять минут фильма. К тому же, особо запутанной интриги тут нет, опытный зритель скорее всего сразу додумается, кто на само деле виновен в смерти женщины-офицера.
«Генеральская дочь» по-своему красивое кино. Во всех этих американских армейских декорациях куда больше чего-то притягивающего, нежели в той армии, которую нам показывают в современных российских фильмах. Правда, в то же время оказывается, что там тоже всякое случается, и даже если твой отец — прославленный генерал, остерегаться надо даже больше, чем при любых других условиях. Ну, и разумеется, все вращается вокруг такой штуки, как патриотизм, уж генерал Кэмпбелл то говорит об этом в первую очередь. Джеймс Кромвелл, как всегда, очень убедителен. С актерами в принципе все отлично, а очередной отличный фильм с Джоном Траволтой посмотреть обязательно стоит, без вопросов. Вновь пример качественного кино по всем параметрам.
На мой взгляд — интересный триллер-детектив про нехорошие вещи, творящиеся в армии США. Одна из лучших ролей здорово растолстевшего Траволты.
-Скриншоты:
         
       
-
Вне форума [Профиль] [ЛС]

consumer

Пол:

Стаж: 3 года 7 месяцев

Сообщений: 195

Торрент-статистика

Пост 13-Июн-2013 16:22 (спустя 4 дня)

[Цитировать]

Отличный фильм-по нраву.
Посмотрите, рейтинг 7,095
Вне форума [Профиль] [ЛС]
Похожие темы
Форум Тема Автор Торрент Отв. Посл. сообщение
./templates/default/images/folder_dl.gif Обучающее видео Специалист | Генеральный директор (CEO) (2014) PCRec [H.264/720p-LQ] Omen
1 | 0

0 | 453

38

2014-12-28 13:00
Omen Последнее
Показать сообщения:    
Ответить на тему

Текущее время: Сегодня 14:55

Часовой пояс: GMT + 3



Вы не можете начинать темы
Вы не можете отвечать на сообщения
Вы не можете редактировать свои сообщения
Вы не можете удалять свои сообщения
Вы не можете голосовать в опросах
Вы не можете прикреплять файлы к сообщениям
Вы не можете скачивать файлы