Сегодня идет свободное скачивание без начисления Download

Точка кипения / Boiling Point (Джеймс Б. Харрис) (Триллер, Драма, Криминал, 1993) DVDRip

Ответить на тему
 
Автор
Сообщение

Omen ®

Стаж: 4 года 1 месяц

Сообщений: 194390

Торрент-статистика

Пост 08-Июн-2013 16:52

[Цитировать]

Точка кипения
Boiling Point
- Русское название: Точка кипения
Оригинальное название: Boiling Point
Год выпуска: 1993
Жанр: Триллер, Драма, Криминал
Описание фильма:
Операция полицейских по захвату группы торговцев наркотиками провалилась. С трагическим исходом - был убит полицейский Руссо, работавший под "прикрытием"( то есть выдававший себя за перекупщика наркотиков). Но преступники захватили деньги, которые принес Руссо, а они были фальшивыми. И через несколько дней поддельные банкоты "всплыли".
В свою картину, поставленную по роману Джералда Петиевича "Денежные люди", режиссеру Джеймсу Б. Хэррису удалось собрать шикарную актерскую команду, даже если не считать исполнителей главных ролей- на втором плане играют Вигго Мортенсен и Сеймур Кэссел, Джонатан Бэнкс и Тони Ло Бьянко, Валери Перрин и Джеймс Толкэн, Пол Глисон и Дэн Хедайя. И, надо сказать честно, им есть что играть в этом фильме
Режиссер: Джеймс Б. Харрис
Актеры: Уэсли Снайпс, Деннис Хоппер, Лолита Давидович, Дэн Хедайя, Вигго Мортенсен, Сеймур Кэссел/, Джонатан Бэнкс, Валери Перрин
Продолжительность: 01:28:46
Перевод: Авторский (одноголосый закадровый) Андрей Гаврилов

_______________________
Видеокодек: Xvid
Битрейт видео: ~2150 Kbps
Размер кадра: 720x384
Качество видео: DVDRip с DVD9
Аудио: AC3, 2 ch, 192Kbps
-

MI

General
Complete name : Boiling_Point.1993.DVDRip.avi
Format : AVI
Format/Info : Audio Video Interleave
File size : 1.46 GiB
Duration : 1h 28mn
Overall bit rate : 2 352 Kbps
Writing application : VirtualDubMod 1.5.10.3 | www.virtualdub-fr.org || (build 2550/release)
Writing library : VirtualDubMod build 2550/release
Video
ID : 0
Format : MPEG-4 Visual
Format profile : Advanced [email protected]
Format settings, BVOP : 1
Format settings, QPel : No
Format settings, GMC : No warppoints
Format settings, Matrix : Custom
Codec ID : XVID
Codec ID/Hint : XviD
Duration : 1h 28mn
Bit rate : 2 150 Kbps
Width : 720 pixels
Height : 384 pixels
Display aspect ratio : 1.85:1
Frame rate : 25.000 fps
Color space : YUV
Chroma subsampling : 4:2:0
Bit depth : 8 bits
Scan type : Progressive
Compression mode : Lossy
Bits/(Pixel*Frame) : 0.311
Stream size : 1.33 GiB (91%)
Writing library : XviD 73
Audio
ID : 1
Format : AC-3
Format/Info : Audio Coding 3
Mode extension : CM (complete main)
Format settings, Endianness : Big
Codec ID : 2000
Duration : 1h 28mn
Bit rate mode : Constant
Bit rate : 192 Kbps
Channel(s) : 2 channels
Channel positions : Front: L R
Sampling rate : 48.0 KHz
Bit depth : 16 bits
Compression mode : Lossy
Stream size : 122 MiB (8%)
Alignment : Split accross interleaves
Interleave, duration : 40 ms (1.00 video frame)
Interleave, preload duration : 500 ms
-Скриншоты
           
Вне форума [Профиль] [ЛС]
Показать сообщения:    
Ответить на тему

Текущее время: Сегодня 08:53

Часовой пояс: GMT + 3



Вы не можете начинать темы
Вы не можете отвечать на сообщения
Вы не можете редактировать свои сообщения
Вы не можете удалять свои сообщения
Вы не можете голосовать в опросах
Вы не можете прикреплять файлы к сообщениям
Вы не можете скачивать файлы