Сегодня идет свободное скачивание без начисления Download

Черная вдова / Black Widow (Боб Рейфелсон) (Триллер, Криминал, 1987) DVDRip [H.264]

Ответить на тему
 
Автор
Сообщение

Omen ®

Стаж: 4 года 1 месяц

Сообщений: 194359

Торрент-статистика

Пост 08-Июн-2013 20:21

[Цитировать]

Черная вдова / Black Widow -«She Mates and She kills. No Man Can Resist Her. Only One Woman Can Stop Her.»- Русское название: Черная вдова
Оригинальное название: Black Widow
Год выпуска: 1987
Жанр: Триллер, Криминал
Производство: США / 20th Century Fox Film Corporation, Amercent Films, American Entertainment Partners L.P.
Описание фильма:
Чувственная и изящная Кэтрин прекрасно устраивается в жизни с помощью мужчин. Ей поразительно везет: один за другим ее обеспеченные мужья умирают от загадочных болезней и завещают любимой жене все, что имеют. Единственный минус такого везения в том, что тяжело избежать подозрений, но ведь богатые так же смертны как все мы.
Да и кому придет в голову связывать между собой смерть абсолютно разных людей, в разное время, в далеких друг от друга местах. Тем более никто не заподозрит, что их жены Кэтрин, Мариэль, Маргарет и Рене — одна и та же женщина. Никто, кроме агента ФБР Алекс Барнс. Алекс обнаруживает смертельные сети, расставленные на состоятельных холостяков, но скромную кабинетную мышку никто и слушать не хочет.
Кто-то должен спасти жизнь новых жертв, попавших в гибельную паутину очарования, и первым делом ей придется научиться искусству обращения с этим оружием. По зубам ли тихой Алекс хищница Кэтрин? В этой дуэли не будет ни правил, ни секундантов. Один на один. До конца.
Режиссер: Боб Рейфелсон
Сценарий: Роналд Бэсс
Продюсер: Харольд Шнайдер, Лоуренс Марк
Актеры: Дебра Уингер, Тереза Расселл, Сами Фре, Деннис Хоппер, Никол Уильямсон, Терри О’Куинн, Джеймс Хонг, Дайан Лэдд, Д.В. Моффетт, Лоис Смит
Продолжительность: 01:37:43
Перевод: Многоголосый закадровый

Дата мировой премьеры: 6 февраля 1987
Дата выхода DVD релиза: 27 ноября 2008, «Двадцатый Век Фокс СНГ»
Видеокодек: MPEG-4 AVC/H.264
Битрейт видео: ~2370 Кбит/сек
Размер кадра: 720x384
Качество видео: DVDRip
Аудиокодек: AC3 2.0
Битрейт аудио: 192 Кбит/сек

Реценция с кинопоиска от SumarokovNC-17:

Эротический триллер Боба Рафельсона
Фильм «Черная вдова» Боба Рафельсона стал для этого режиссера одним из немногих погружений в сугубо жанровое кино. Данный эротический триллер имел приличный успех в прокате и на данный момент стал культовым в среде поклонников этого жанра, хотя ленту в России практически забыли.
В центре сюжета картины героиня Терезы Рассел, чувственная и сексуальная Кэтрин, живущая ради обогащения и являющаяся настоящей прожорливой самкой-паучихой. Всех, кого очаровывает Кэтрин, ждет печальный, предсказуемый финал, но режиссер показывает, что жертвы сами принимают подобные условия. Все мужчины Кэтрин готовы быть ее подчиненными; тогда как Кэтрин символизирует свободную современную женщину, для которой нормой является сексуальная агрессия. Тереза Рассел сыграла Кэтрин просто великолепно, отобрав часть внимания зрителей от остального актерского состава, включающего Денниса Хоппера, Дебру Уингер, Дайен Лэдд и т. д.
Сценарий Рона Басса достаточно непредсказуемый и загадочный, поэтому гарантирую поклонникам триллеров удовольствие от просмотра. А замечательный саундтрек от Майкла Смолла можно лишь сравнить с песней «Цвет ночи» Лорен Кристи из одноименного триллера уже 90-х годов.
Рекомендую данную картину поклонникам эротических триллеров и просто тем, кто ищет хорошое, но, к несчастью, забытое кино. Фильм Вас не разочарует.
10 из 10

MediaInfo:

General
Unique ID : 245748227352057985164454276621083793781 (0xB8E163115DD008CEB500BA818026D975)
Complete name : H:\Downloads\Черная вдова.mkv
Format : Matroska
Format version : Version 4 / Version 2
File size : 1.75 GiB
Duration : 1h 37mn
Overall bit rate : 2 563 Kbps
Encoded date : UTC 2013-06-07 09:50:33
Writing application : mkvmerge v6.0.0 ('Coming Up For Air') built on Jan 20 2013 09:52:00
Writing library : libebml v1.3.0 + libmatroska v1.4.0
Video
ID : 1
Format : AVC
Format/Info : Advanced Video Codec
Format profile : [url=mailto:[email protected]][email protected][/url]
Format settings, CABAC : Yes
Format settings, ReFrames : 8 frames
Codec ID : V_MPEG4/ISO/AVC
Duration : 1h 37mn
Bit rate : 2 370 Kbps
Width : 720 pixels
Height : 384 pixels
Display aspect ratio : 1.85:1
Frame rate mode : Constant
Frame rate : 25.000 fps
Color space : YUV
Chroma subsampling : 4:2:0
Bit depth : 8 bits
Scan type : Progressive
Bits/(Pixel*Frame) : 0.343
Stream size : 1.58 GiB (91%)
Title : Black Widow
Writing library : x264 core 125 r2208 d9d2288
Encoding settings : cabac=1 / ref=8 / deblock=1:-1:-1 / analyse=0x3:0x133 / me=umh / subme=9 / psy=1 / psy_rd=1.00:0.10 / mixed_ref=1 / me_range=32 / chroma_me=1 / trellis=2 / 8x8dct=1 / cqm=0 / deadzone=21,11 / fast_pskip=0 / chroma_qp_offset=-3 / threads=6 / lookahead_threads=1 / sliced_threads=0 / nr=0 / decimate=1 / interlaced=0 / bluray_compat=0 / constrained_intra=0 / bframes=3 / b_pyramid=2 / b_adapt=2 / b_bias=0 / direct=3 / weightb=1 / open_gop=0 / weightp=2 / keyint=250 / keyint_min=25 / scenecut=40 / intra_refresh=0 / rc_lookahead=60 / rc=2pass / mbtree=1 / bitrate=2370 / ratetol=1.0 / qcomp=0.60 / qpmin=10 / qpmax=51 / qpstep=4 / cplxblur=20.0 / qblur=0.5 / ip_ratio=1.40 / aq=1:1.00
Language : English
Default : Yes
Forced : No
Audio
ID : 2
Format : AC-3
Format/Info : Audio Coding 3
Mode extension : CM (complete main)
Format settings, Endianness : Big
Codec ID : A_AC3
Duration : 1h 37mn
Bit rate mode : Constant
Bit rate : 192 Kbps
Channel(s) : 2 channels
Channel positions : Front: L R
Sampling rate : 48.0 KHz
Bit depth : 16 bits
Compression mode : Lossy
Stream size : 134 MiB (7%)
Title : Профессиональный (многоголосый закадровый)
Language : Russian
Default : Yes
Forced : No
Скриншоты:                    
Вне форума [Профиль] [ЛС]
Похожие темы
Форум Тема Автор Торрент Отв. Посл. сообщение
./templates/default/images/folder_dl.gif Rock АлисА - Черная метка (1994) Remastered /2014, Мистерия Звука/ [MP3|320 кб/с]<Rock> Aikivas
1 | 0

0 | 388

6

2015-08-18 21:37
Aikivas Последнее
./templates/default/images/folder_dl.gif T Фильмы 2011-2016 Черная месса / Black Mass (Скотт Купер) [2015 г., драма, криминал, биография,WEB-DLRip] Region_13
1 | 0

0 | 501

25

2016-01-12 12:08
Region_13 Последнее
./templates/default/images/folder_dl.gif Зарубежные фильмы с переводом Шелковые Чулки: Черная Вдова (rus) (Geraldine Greystoke, Greg Steel, Horizon) [1995 г., DVDRip] Fanatik
1 | 0

0 | 432

10

2016-02-13 21:55
Fanatik Последнее
Показать сообщения:    
Ответить на тему

Текущее время: Сегодня 05:09

Часовой пояс: GMT + 3



Вы не можете начинать темы
Вы не можете отвечать на сообщения
Вы не можете редактировать свои сообщения
Вы не можете удалять свои сообщения
Вы не можете голосовать в опросах
Вы не можете прикреплять файлы к сообщениям
Вы не можете скачивать файлы