Сегодня идет свободное скачивание без начисления Download

Тайна острова чудовищ / Загадка острова сокровищ / Mystery on Monster Island / Misterio en la isla de los monstruos (1981) DVDRip

Ответить на тему
 
Автор
Сообщение

Koralina ®

Стаж: 5 лет 3 месяца

Сообщений: 1433

Откуда: Lithuania

Торрент-статистика

Пост 09-Июн-2013 17:29

[Цитировать]

Тайна острова чудовищ / Загадка острова сокровищ / Mystery on Monster Island / Misterio en la isla de los monstruos (1981) DVDRip- Русское название: Тайна острова чудовищ / Загадка острова сокровищ
Оригинальное название: Mystery on Monster Island / Misterio en la isla de los monstruos
Год выпуска: 1981
Жанр: Комедия, Приключения, Семейный
Страна: США, Испания
Производство: "Алмена Филмз"-"Форт филмз"
Описание фильма:
Экранизация повести Жюля Верна "Школа Робинзонов".
Джефф Морган, живущий в Сан-Франциско молодой европеец, собирается женится на очаровательной Мэг, дочери богатого предпринимателя Вильяма Колдерапа, однако прежде юноша желает увидеть мир, отправившись в далекое путешествие. Дядя Вильям идет ему навстречу и снаряжает для этой цели свой корабль "Мечта". После недолгого плаванья, загадочное проишествие заставляет Джеффа покинуть судно. В паре с чудоковатым учителем танцев, Томасом Артелеттом, он оказывается на небольшом острове посреди океана. Встреча с людоедами и чудовищными монстрами, битва с коварными золотоискателями и встреча с прекрасной незнакомкой, это и многое другое предстоит пережить юному путешественнику, прежде, чем выяснится истинная причина его злоключений. Удастся ли им спастись? Или загадка острова Чудовищ так и останется неразгаданной...

Доп.информация: За DVD спасибо dvdbox. На афише (постере) немного не верная информация: фильм снят не по роману "Таинственный остров", а по мотивам романа Ж.Верна "Школа Робинзонов"
Режиссер: Хуан Пикер Симон / Juan Piquer Simon
Актеры: Теренс Стэмп, Питер Кашинг, Йен Сера, Дэвид Хаттон, Бланка Эстрада, Ана Обрегон, Фрэнк Брана, Хасинто Молина, Жерар Тиши...
Роли дублируют: В.Коршун, В.Пупков, В.Шныпарь, В.Дорошенко, В,Пайтина, С.Кондратова, А.Соколовский, В.Черняк, Г.Болотов. Фильм дублирован на к/с им. А. П. Довженко в 1984 году.
Режиссер дубляжа: Н. Ходорковская
Продолжительность: 01:44:44
Перевод: Дублированный (советский дубляж) (В местах ранне отсутствовавших в прокатной версии, перевод Профессиональный (многоголосый закадровый))

Дата мировой премьеры: 3 апреля 1981
Дата выхода DVD релиза: 23 октября 2008, «Мистерия Звука»
Видеокодек: Xvid
Битрейт видео: ~1 806 Kbps
Размер кадра: 688х400
Качество видео: DVDRip
Аудиокодек: AC3 2.0
Битрейт аудио: 192 Kbps
Сэмпл: Ссылка
Исходник DVD9, NTSC 16:9 (720x480) VBR

Медиаинфо

Format : AVI
Format/Info : Audio Video Interleave
File size : 1.47 GiB
Duration : 1h 44mn
Overall bit rate : 2 007 Kbps
Director : CrimeanFox
Writing application : VirtualDubMod 1.5.10.2 (build 2540/release)
Writing library : VirtualDub build 32842/release
Video
ID : 0
Format : MPEG-4 Visual
Format profile : Advanced [email protected]
Format settings, BVOP : 2
Format settings, QPel : No
Format settings, GMC : No warppoints
Format settings, Matrix : Custom
Muxing mode : Packed bitstream
Codec ID : XVID
Codec ID/Hint : XviD
Duration : 1h 44mn
Bit rate : 1 806 Kbps
Width : 688 pixels
Height : 400 pixels
Display aspect ratio : 16:9
Frame rate : 23.976 fps
Color space : YUV
Chroma subsampling : 4:2:0
Bit depth : 8 bits
Scan type : Progressive
Compression mode : Lossy
Bits/(Pixel*Frame) : 0.274
Stream size : 1.32 GiB (90%)
Writing library : XviD 1.0.3 (UTC 2004-12-20)
Audio
ID : 1
Format : AC-3
Format/Info : Audio Coding 3
Mode extension : CM (complete main)
Codec ID : 2000
Duration : 1h 44mn
Bit rate mode : Constant
Bit rate : 192 Kbps
Channel(s) : 2 channels
Channel positions : Front: L R
Sampling rate : 48.0 KHz
Bit depth : 16 bits
Compression mode : Lossy
Delay relative to video : 24ms
Stream size : 144 MiB (10%)
Alignment : Split accross interleaves
Interleave, duration : 42 ms (1.00 video frame)
Interleave, preload duration : 500 ms
Скриншоты:

Время раздачи: С10:00 до 24:00

_________________
Вне форума [Профиль] [ЛС]
Похожие темы
Форум Тема Автор Торрент Отв. Посл. сообщение
./templates/default/images/folder_dl.gif Приключения и квесты Mystery Trackers: Blackrow\'s Secret Collector\'s Edition / Охотники за тайнами. Загадка рода Блэкроу. Коллекционное издание [P] [RUS / ENG] (2014) Omen
28 | 0

0 | 447

12

2015-06-06 00:09
Omen Последнее
./templates/default/images/folder_dl.gif Фантастика, фэнтези, ужасы, мистика Лилия Данина | Тайна шестого бога (2016) [FB2] moralis
1 | 0

0 | 166

1

2016-02-10 20:22
moralis Последнее
./templates/default/images/folder_dl.gif Новинки (CamRip|TS) Тайная жизнь домашних животных / The Secret Life of Pets (Ярроу Чейни, Крис Рено) [2016 г., мультфильм, комедия, семейный, TS] DVO Theseus
1 | 0

0 | 623

35

2016-07-23 14:34
Theseus Последнее
Показать сообщения:    
Ответить на тему

Текущее время: Сегодня 00:21

Часовой пояс: GMT + 3



Вы не можете начинать темы
Вы не можете отвечать на сообщения
Вы не можете редактировать свои сообщения
Вы не можете удалять свои сообщения
Вы не можете голосовать в опросах
Вы не можете прикреплять файлы к сообщениям
Вы не можете скачивать файлы