Сегодня идет свободное скачивание без начисления Download

Путь на Запад / The Way West (1967) BDRip [H.264]

Ответить на тему
 
Автор
Сообщение

UndegraundMen ®

Стаж: 3 года 9 месяцев

Сообщений: 28329

Торрент-статистика

Пост 10-Июн-2013 02:50

[Цитировать]

Путь на Запад / The Way West (1967) BDRip [H.264] -«Cracking Like a Whip From Here to Excitement!»- Русское название: Путь на Запад
Оригинальное название: The Way West
Год выпуска: 1967
Жанр: Приключения, Вестерн
Страна: США
Производство: Harold Hecht Productions
Описание фильма:
Середина XIX века. Уильям Тэдлок ведет переселенцев на запад Америки, чтобы создать там новое поселение. Тэдлок — строгий предводитель, который одинаково требователен как к себе, так и к остальным участникам похода. По дороге путешественникам приходится пережить множество несчастий, а после убийства индейского мальчика испытать на себе всю силу правосудия.
Режиссер: Эндрю В. МакЛаглен
Сценарий: Бен Мэддоу, Митч Линдеманн, А.Б. Гатри мл.
Продюсер: Харольд Хект, Митч Линдеманн
Актеры: Кирк Дуглас, Роберт Митчум, Ричард Уидмарк, Лола Олбрайт, Салли Филд, Кэтерин Джастис, Джек Илэм, Стабби Кэй, Майкл МакГриви, Гарри Кэри мл.
Продолжительность: 02:02:04
Перевод: Многоголосый закадровый (Петербург 5 канал)
Субтитры: Отсутствуют

Дата мировой премьеры: 24 мая 1967
Видеокодек: MPEG-4 AVC/H.264
Битрейт видео: ~1970 Кбит/сек
Размер кадра: 1024x440
Качество видео: BDRip
Аудиокодек: AC3 2.0
Битрейт аудио: 192 kbps

MediaInfo:

General
Unique ID : 233825188393267022568255195348993212228 (0xAFE917DC785DB6719A0A6A95F7B27F44)
Complete name : H:\Downloads\Путь на Запад.mkv
Format : Matroska
Format version : Version 4 / Version 2
File size : 1.84 GiB
Duration : 2h 2mn
Overall bit rate : 2 164 Kbps
Encoded date : UTC 2013-06-09 07:28:44
Writing application : mkvmerge v6.0.0 ('Coming Up For Air') built on Jan 20 2013 09:52:00
Writing library : libebml v1.3.0 + libmatroska v1.4.0
Video
ID : 1
Format : AVC
Format/Info : Advanced Video Codec
Format profile : [url=mailto:[email protected]][email protected][/url]
Format settings, CABAC : Yes
Format settings, ReFrames : 8 frames
Codec ID : V_MPEG4/ISO/AVC
Duration : 2h 2mn
Bit rate : 1 970 Kbps
Width : 1 024 pixels
Height : 440 pixels
Display aspect ratio : 2.35:1
Frame rate mode : Constant
Frame rate : 23.976 fps
Color space : YUV
Chroma subsampling : 4:2:0
Bit depth : 8 bits
Scan type : Progressive
Bits/(Pixel*Frame) : 0.182
Stream size : 1.64 GiB (89%)
Title : The Way West
Writing library : x264 core 125 r2208 d9d2288
Encoding settings : cabac=1 / ref=8 / deblock=1:-1:-1 / analyse=0x3:0x133 / me=umh / subme=9 / psy=1 / psy_rd=1.00:0.10 / mixed_ref=1 / me_range=32 / chroma_me=1 / trellis=2 / 8x8dct=1 / cqm=0 / deadzone=21,11 / fast_pskip=0 / chroma_qp_offset=-3 / threads=6 / lookahead_threads=1 / sliced_threads=0 / nr=0 / decimate=1 / interlaced=0 / bluray_compat=0 / constrained_intra=0 / bframes=3 / b_pyramid=2 / b_adapt=2 / b_bias=0 / direct=3 / weightb=1 / open_gop=0 / weightp=2 / keyint=250 / keyint_min=25 / scenecut=40 / intra_refresh=0 / rc_lookahead=60 / rc=2pass / mbtree=1 / bitrate=1970 / ratetol=1.0 / qcomp=0.60 / qpmin=10 / qpmax=51 / qpstep=4 / cplxblur=20.0 / qblur=0.5 / ip_ratio=1.40 / aq=1:1.00
Language : English
Default : Yes
Forced : No
Audio
ID : 2
Format : AC-3
Format/Info : Audio Coding 3
Mode extension : CM (complete main)
Format settings, Endianness : Big
Codec ID : A_AC3
Duration : 2h 2mn
Bit rate mode : Constant
Bit rate : 192 Kbps
Channel(s) : 2 channels
Channel positions : Front: L R
Sampling rate : 48.0 KHz
Bit depth : 16 bits
Compression mode : Lossy
Stream size : 168 MiB (9%)
Title : Многоголосый закадровый, Петербург 5 канал
Language : Russian
Default : Yes
Forced : No
Скриншоты: Время раздачи: с 13:00 до 24:00 по Москве (выходные круглосуточно), до 10 скачавших
Вне форума [Профиль] [ЛС]
Показать сообщения:    
Ответить на тему

Текущее время: Сегодня 02:54

Часовой пояс: GMT + 3



Вы не можете начинать темы
Вы не можете отвечать на сообщения
Вы не можете редактировать свои сообщения
Вы не можете удалять свои сообщения
Вы не можете голосовать в опросах
Вы не можете прикреплять файлы к сообщениям
Вы не можете скачивать файлы