Сегодня идет свободное скачивание без начисления Download

Ослепленный желаниями / Bedazzled (Харольд Рэмис) (Фэнтези, Комедия, 2000) BDRip от HQCLUB

Ответить на тему
 
Автор
Сообщение

Omen ®

Стаж: 4 года 1 месяц

Сообщений: 194394

Торрент-статистика

Пост 10-Июн-2013 17:22

[Цитировать]

Ослепленный желаниями
Bedazzled

«The she devil is giving Elliot seven wishes but not a chance in hell.»
- Русское название: Ослепленный желаниями
Оригинальное название: Bedazzled
Год выпуска: 2000
Жанр: Фэнтези, Комедия
Описание фильма:
Дьявол еще никогда не был таким соблазнительным. В этот раз он принимает обличие распутной красотки, заставляющий любого мужчину броситься в объятия безумства. Неудачник-программист — лучший объект для вербовки.
Объект продажи — бессмертная душа. Цена — 7 желаний. Но в этой жизни бесплатным бывает лишь сыр в мышеловке, каждая медаль имеет две стороны. Выполняя любое желание продажной души, дьявол не дает насладиться результатом. В мгновение ока жизнь программиста превращается в настоящий ад.
Режиссер: Харольд Рэмис
Актеры: Брендан Фрейзер, Элизабет Херли, Фрэнсис О’Коннор, Мириам Шор, Орландо Джонс, Пол Адельштейн, Тоби Хасс, Гэбриел Коссес, Брайан Дойл-Мюррэй, Джефф Дусетте
Продолжительность: 01:33:08
Перевод: Дублированный (лицензия)
Язык субтитров: Русский (форсированные на испанскую речь)
Вид субтитров: Отдельным файлом

Дата мировой премьеры: 19 октября 2000
Дата российской премьеры: 20 декабря 2000
Качество: BDRip (источник: crazywelder / BD-Remux / 1080р)
Формат: AVI
Видеокодек: XviD
Аудиокодек: AC3 5.1
Видео: MPEG-4 Visual at 2553 Кбит/сек, 720 x 304 (2.368) at 23.976 fps
Аудио #1: 48 kHz, AC3 Dolby Digital, 3/2 (L,C,R,l,r) + LFE ch, ~384.00 kbps avg
Аудио #2: 48 kHz, AC3 Dolby Digital, 3/2 (L,C,R,l,r) + LFE ch, ~384.00 kbps avg (отдельно, http)
Аудио #3: 48 kHz, AC3 Dolby Digital, 3/2 (L,C,R,l,r) + LFE ch, ~384.00 kbps avg (отдельно, http)
Аудио #4: 48 kHz, AC3 Dolby Digital, 3/2 (L,C,R,l,r) + LFE ch, ~384.00 kbps avg (отдельно, http)
Аудио #5: 48 kHz, AC3 Dolby Digital, 3/2 (L,C,R,l,r) + LFE ch, ~384.00 kbps avg (отдельно, http)
Аудио #6: 48 kHz, AC3 Dolby Digital, 3/2 (L,C,R,l,r) + LFE ch, ~384.00 kbps avg (отдельно, http)

MediaInfo

Код:
Общее
Полное имя                               : C:\Users\Администратор\Desktop\Osleplennyj.zhelaniyami.2000.RUS.BDRip.XviD.AC3._HQCLUB_SAMPLE.avi
Формат                                   : AVI
Формат/Информация                        : Audio Video Interleave
Размер файла                             : 22,0 Мбайт
Продолжительность                        : 1 м. 2 с.
Общий поток                              : 2948 Кбит/сек
Программа кодирования                    : VirtualDubMod 1.5.10.2 (build 2540/release)
Библиотека кодирования                   : VirtualDubMod build 2540/release
Видео
Идентификатор                            : 0
Формат                                   : MPEG-4 Visual
Профиль формата                          : Advanced [email protected]
Параметр BVOP формата                    : 1
Параметр QPel формата                    : Нет
Параметр GMC формата                     : Без точки перехода
Параметр матрицы формата                 : Выборочная
Идентификатор кодека                     : XVID
Идентификатор кодека/Подсказка           : XviD
Продолжительность                        : 1 м. 2 с.
Битрейт                                  : 2553 Кбит/сек
Ширина                                   : 720 пикселей
Высота                                   : 304 пикселя
Соотношение сторон                       : 2,35:1
Частота кадров                           : 23,976 кадра/сек
Цветовое пространство                    : YUV
Субдискретизация насыщенности            : 4:2:0
Битовая глубина                          : 8 бит
Тип развёртки                            : Прогрессивная
Метод сжатия                             : С потерями
Бит/(Пиксели*Кадры)                      : 0.487
Размер потока                            : 19,0 Мбайт (87%)
Библиотека кодирования                   : XviD 65
Аудио
Идентификатор                            : 1
Формат                                   : AC-3
Формат/Информация                        : Audio Coding 3
Расширение режима                        : CM (complete main)
Параметр Endianness формата              : Big
Идентификатор кодека                     : 2000
Продолжительность                        : 1 м. 2 с.
Вид битрейта                             : Постоянный
Битрейт                                  : 384 Кбит/сек
Каналы                                   : 6 каналов
Расположение каналов                     : Front: L C R, Side: L R, LFE
Частота                                  : 48,0 КГц
Битовая глубина                          : 16 бит
Метод сжатия                             : С потерями
Задержка видео                           : 25 мс.
Размер потока                            : 2,86 Мбайт (13%)
Выравнивание                             : Разделение по промежуткам
Продолжительность промежутка             : 42  мс. (1,01 видеокадр)
Время предзагрузки промежутка            : 500  мс.
-Скриншоты:
       
       
Вне форума [Профиль] [ЛС]
Показать сообщения:    
Ответить на тему

Текущее время: Сегодня 17:35

Часовой пояс: GMT + 3



Вы не можете начинать темы
Вы не можете отвечать на сообщения
Вы не можете редактировать свои сообщения
Вы не можете удалять свои сообщения
Вы не можете голосовать в опросах
Вы не можете прикреплять файлы к сообщениям
Вы не можете скачивать файлы