Сегодня идет свободное скачивание без начисления Download

Крестная мать / Bella Mafia (Дэвид Грин) (Драма, Криминал, 1997) DVDRip

Ответить на тему
 
Автор
Сообщение

Omen ®

Стаж: 4 года 1 месяц

Сообщений: 194390

Торрент-статистика

Пост 10-Июн-2013 17:26

[Цитировать]

Крестная мать
Bella Mafia

«Hell hath no fury like the women of...»
- Русское название: Крестная мать
Оригинальное название: Bella Mafia
Старана: США
Год выпуска: 1997
Жанр: Драма, Криминал
Описание фильма:
Они были вне закона гангстеры без страха и упрека. Но их жизнь была коротка как выстрел, а смерть неожиданна и жестока. Когда последний главарь мафии стал жертвой очередной разборки, в дело вступили женщины жены гангстеров, их матери, сестры, дочери. Они действуют не менее жестоко, чем мужчины
Режиссер: Дэвид Грин
Актеры: Ванесса Редгрейв, Деннис Фарина, Настасья Кински, Дженнифер Тилли, Илляна Даглас, Джеймс Марсден, Джина Филипс, Ричард Портноу, Франко Неро, Питер Богданович, Кармен Ардженциано, Майкл Хейден, Ричард Джозеф Пол, У. Эрл Браун, Тони Маджио, Томас Арана, Кристофер Шоу, Майкл Рейнор, Тони Ло Бьянко, Тодд Тэсэн
Продолжительность: 02:43:19
Перевод: Многоголосый закадровый

Дата мировой премьеры: 16 ноября 1997
Дата выхода DVD релиза: 27 августа 2009, «Cinema Prestige»
Качество видео: DVDRip
Видео: 704x528 (1.33:1), 25 fps, XviD build 63 ~1680 kbps avg, 0.18 bit/pixel
Аудио: 48 kHz, AC3 Dolby Digital, 2/0 (L,R) ch, ~192 kbps

MediaInfo

General
Complete name : E:\Bella Mafia\Bella.Mafia.1997.DVDRip.(R9).by_dancer_go.avi
Format : AVI
Format/Info : Audio Video Interleave
Format profile : OpenDML
File size : 2.14 GiB
Duration : 2h 43mn
Overall bit rate : 1 880 Kbps
Writing application : VirtualDubMod 1.5.10.3 (build 2550/release)
Writing library : VirtualDubMod build 2550/release
Video
ID : 0
Format : xvid
Codec ID : xvid
Duration : 2h 43mn
Bit rate : 1 675 Kbps
Width : 704 pixels
Height : 528 pixels
Display aspect ratio : 4:3
Frame rate : 25.000 fps
Bits/(Pixel*Frame) : 0.180
Stream size : 1.91 GiB (89%)
Audio
ID : 1
Format : AC-3
Format/Info : Audio Coding 3
Mode extension : CM (complete main)
Format settings, Endianness : Big
Codec ID : 2000
Duration : 2h 43mn
Bit rate mode : Constant
Bit rate : 192 Kbps
Channel(s) : 2 channels
Channel positions : Front: L R
Sampling rate : 48.0 KHz
Bit depth : 16 bits
Compression mode : Lossy
Stream size : 224 MiB (10%)
Alignment : Split accross interleaves
Interleave, duration : 40 ms (1.00 video frame)
Interleave, preload duration : 500 ms
Скриншоты:        -
Вне форума [Профиль] [ЛС]
Похожие темы
Форум Тема Автор Торрент Отв. Посл. сообщение
./templates/default/images/folder_dl.gif Приключения, детектив, боевик, триллер Маринина Александра - Тот, кто знает. Перекресток [Герасимов Вячеслав, 2012, 96 kbps, MP3] Omen
1 | 0

0 | 410

6

2012-12-11 05:28
Omen Последнее
./templates/default/images/folder_dl.gif Обучающее видео Радислав Гандапас - Крест лидера [2013, Бизнес, лидерство, DVDRip, RUS] (Видеоурок) Omen
1 | 0

0 | 497

32

2014-11-03 17:00
Omen Последнее
Показать сообщения:    
Ответить на тему

Текущее время: Сегодня 13:27

Часовой пояс: GMT + 3



Вы не можете начинать темы
Вы не можете отвечать на сообщения
Вы не можете редактировать свои сообщения
Вы не можете удалять свои сообщения
Вы не можете голосовать в опросах
Вы не можете прикреплять файлы к сообщениям
Вы не можете скачивать файлы