Сегодня идет свободное скачивание без начисления Download

Второгодница заигрывает с директором / La ripetente fa l'occhietto al preside (Мариано Лауренти) (Комедия, 1980) DVDRip [H.264]

Ответить на тему
 
Автор
Сообщение

Omen ®

Стаж: 4 года 1 месяц

Сообщений: 194390

Торрент-статистика

Пост 11-Июн-2013 16:30

[Цитировать]

Второгодница заигрывает с директором
La ripetente fa l'occhietto al preside
- Русское название: Второгодница заигрывает с директором
Оригинальное название: La ripetente fa l'occhietto al preside
Год выпуска: 1980
Жанр: Комедия
Страна: Италия
Производство: Dania Film, Medusa Produzione, Nuova Dania Cinematografica
Описание фильма:
В классе лицеистов учится красивая девушка — второгодница Анжела. В нее влюблен один из ее одноклассников. Но она, чтобы его приревновать, начинает встречаться с директором своего лицея, который так же в нее влюблен. А тем временем, ее преподаватель — профессор химии, тайно влюблен в жену директора, очаровательную Монику. В лицее же, тем временем, ученики прикалываются и подшучивают над преподавателями…
Режиссер: Мариано Лауренти
Сценарий: Мариано Лауренти, Francesco Milizia
Продюсер: Джанни Сараго
Актеры: Анна Мария Риццоли, Лино Банфи, Альваро Витали, Карло Спозито, Лоредана Мартинес, Ренцо Оццано, Крис Аврам, Эрмелинда Де Феличе, Франка Мантелли, Дарио Сильваньи, Риа Де Симоне, Джанлука Мануцца
Продолжительность: 01:28:00
Перевод: Одноголосый закадровый
Субтитры: Отсутствуют

Дата мировой премьеры: 14 августа 1980
Видеокодек: MPEG-4 AVC/H.264
Битрейт видео: ~2050 Кбит/сек
Размер кадра: 720x432
Качество видео: DVDRip
Аудиокодек: AC3 2.0
Битрейт аудио: 192 kbps

MediaInfo:

General
Unique ID : 242423194014753030168851204247790247696 (0xB66102446EC8E243A730394C96375F10)
Complete name : H:\Downloads\Второгодница заигрывает с директором.mkv
Format : Matroska
Format version : Version 4 / Version 2
File size : 1.38 GiB
Duration : 1h 28mn
Overall bit rate : 2 244 Kbps
Encoded date : UTC 2013-06-09 05:21:54
Writing application : mkvmerge v6.0.0 ('Coming Up For Air') built on Jan 20 2013 09:52:00
Writing library : libebml v1.3.0 + libmatroska v1.4.0
Video
ID : 1
Format : AVC
Format/Info : Advanced Video Codec
Format profile : [url=mailto:[email protected]][email protected][/url]
Format settings, CABAC : Yes
Format settings, ReFrames : 8 frames
Codec ID : V_MPEG4/ISO/AVC
Duration : 1h 28mn
Bit rate : 2 050 Kbps
Width : 720 pixels
Height : 432 pixels
Display aspect ratio : 1.667
Frame rate mode : Constant
Frame rate : 25.000 fps
Color space : YUV
Chroma subsampling : 4:2:0
Bit depth : 8 bits
Scan type : Progressive
Bits/(Pixel*Frame) : 0.264
Stream size : 1.23 GiB (89%)
Title : La ripetente fa l'occhietto al preside
Writing library : x264 core 125 r2208 d9d2288
Encoding settings : cabac=1 / ref=8 / deblock=1:-1:-1 / analyse=0x3:0x133 / me=umh / subme=9 / psy=1 / psy_rd=1.00:0.10 / mixed_ref=1 / me_range=16 / chroma_me=1 / trellis=2 / 8x8dct=1 / cqm=0 / deadzone=21,11 / fast_pskip=1 / chroma_qp_offset=-3 / threads=6 / lookahead_threads=1 / sliced_threads=0 / nr=0 / decimate=1 / interlaced=0 / bluray_compat=0 / constrained_intra=0 / bframes=3 / b_pyramid=2 / b_adapt=2 / b_bias=0 / direct=3 / weightb=1 / open_gop=0 / weightp=2 / keyint=250 / keyint_min=25 / scenecut=40 / intra_refresh=0 / rc_lookahead=60 / rc=2pass / mbtree=1 / bitrate=2050 / ratetol=1.0 / qcomp=0.60 / qpmin=10 / qpmax=51 / qpstep=4 / cplxblur=20.0 / qblur=0.5 / ip_ratio=1.40 / aq=1:1.00
Language : Italian
Default : Yes
Forced : No
Audio
ID : 2
Format : AC-3
Format/Info : Audio Coding 3
Mode extension : CM (complete main)
Format settings, Endianness : Big
Codec ID : A_AC3
Duration : 1h 28mn
Bit rate mode : Constant
Bit rate : 192 Kbps
Channel(s) : 2 channels
Channel positions : Front: L R
Sampling rate : 48.0 KHz
Bit depth : 16 bits
Compression mode : Lossy
Stream size : 121 MiB (9%)
Title : Одноголосый
Language : Russian
Default : Yes
Forced : No
Скриншоты:                    
Вне форума [Профиль] [ЛС]
Похожие темы
Форум Тема Автор Торрент Отв. Посл. сообщение
./templates/default/images/folder_dl.gif Разное Екатерина II, Вольтер | Переписка Российской императрицы Екатерины второй с Вольтером [1802] [PDF] UndegraundMen
1 | 0

0 | 1539

6

2013-08-26 23:32
UndegraundMen Последнее
./templates/default/images/folder_dl.gif Обучающее видео Почему люди покупают? Скрытые и явные потребности / Второй вебинар курса "Стратегия и тактика больших продаж" (СПИН-продажи) [2015, Продажи, SATRip, RUS] (Видеоурок) Omen
1 | 0

0 | 495

21

2015-05-24 18:00
Omen Последнее
Показать сообщения:    
Ответить на тему

Текущее время: Сегодня 14:55

Часовой пояс: GMT + 3



Вы не можете начинать темы
Вы не можете отвечать на сообщения
Вы не можете редактировать свои сообщения
Вы не можете удалять свои сообщения
Вы не можете голосовать в опросах
Вы не можете прикреплять файлы к сообщениям
Вы не можете скачивать файлы