Today is a free download without charge Download

Раскаленная суббота (Александр Митта) (Мелодрама, Криминал, 2002) DVDRip [H.264]

Reply to topic
 
Author
Message

Omen ®

Longevity: 6 years 11 months

Posts: 181090

Торрент-статистика

Post 11-Jun-2013 16:47

[Quote]

Раскаленная суббота -«Между жизнью и принципом выбор может быть только один!!!»- Русское название: Раскаленная суббота
Год выпуска: 2002
Жанр: Мелодрама, Криминал
Производство: Ф.А.Ф. Интертейнмент, Россия
Описание фильма:
Сентябрьская суббота 1995 года. Депутат Дмитрий Земцов готовит к голосованию Закон о государственной поддержке малого бизнеса — инвестиции в полтора миллиарда долларов. Дома Земцова встречает празднично одетая жена, Вера — спустя годы объявился их давнишний друг Иван.
Всех троих связывает студенческая дружба. Иван предлагает Земцову провести выходные на природе, и находит для друга по-настоящему «веский аргумент»…: грудь Ивана опоясывает обойма динамитных шашек. Убив на фирме трех милиционеров, Иван забрал двенадцать миллионов долларов. Земцов — его единственный шанс выбраться из города.
Уже за городом выясняется, что Иван и Вера — любовники с прошлым, прерванным пять лет назад. Иван клянется, что вернулся ради Веры…
Режиссер: Александр Митта
Сценарий: Александр Митта
Продюсер: Александр Митта
Актеры: Виктория Толстоганова, Алиса Признякова, Владимир Вдовиченков, Александр Митта, Алексей Гуськов, Анатолий Кузнецов, Алексей Ошурков, Владимир Симонов, Татьяна Полежайкина, Алена Стебунова
Продолжительность: 01:45:37
Cубтитры: Отсутствуют

Премьера Россия: 29 августа 2002, «Панорама»
Релиз на DVD: 17 июня 2009, «Азимут»
Видеокодек: MPEG-4 AVC/H.264
Битрейт видео: ~1850 Кбит/сек
Размер кадра: 720x416
Качество видео: DVDRip
Аудиокодек: AC3 5.1
Битрейт аудио: 384 kbps

Реценция с кинопоиска от Flexin:

Неслабый отечественный экшн
Раньше не обращала внимания, на то, что некоторые фильмы относятся к категории ТВ, т. е. предназначены именно для показа по телевидению, а не для больших экранов. Очень удачным примером такого фильма является картина «Раскаленная суббота». Чесслово не понятно — почему такой низкий рейтинг…
Хотя да.. это ж вам не раскрученные, к примеру, «Бригада» или «Бумер»… А «Суббота» межу прочим значительно превосходит вышеупомянутые «шедевры» как по сюжету, так и по смысловой нагрузке.
Митта в очередной раз не прогадал, взяв на одну из главных ролей своего любимого Гуськова — харизматичного и неоднозначного «злодея». Один из моих любимых российских актеров — Владимир Симонов (эдакий наш Колин Ферт, напоминающий последнего как внешне, так и по характеру сыгранных персонажей) тоже отлично справился с ролью главы семейства и крупной шишки. Второстепенные персонажи также весьма яркие и добавляют колорита картине.
Сюжет динамичный и захватывающий, радует обилием неожиданных поворотов и «накалом страстей». Фильм о чести, дружбе, совести, предательстве, семейных ценностях, самопожертвовании, в общем, обо всех гранях человеческого характера.
Если наткнетесь случайно, щелкая пультом от телевизора, не переключайте. Хорошее времяпровождение обеспечено.
9 из 10

Награды:

Кинотавр, 2002 год
Номинации (1):
Главный приз «Золотая роза»

MediaInfo:

General
Unique ID : 176384699591514825694519474758632501568 (0x84B2751C972300FA8C30E3923ECA7140)
Complete name : H:\Downloads\Раскаленная суббота.mkv
Format : Matroska
Format version : Version 4 / Version 2
File size : 1.65 GiB
Duration : 1h 45mn
Overall bit rate : 2 236 Kbps
Encoded date : UTC 2013-06-08 11:56:02
Writing application : mkvmerge v6.0.0 ('Coming Up For Air') built on Jan 20 2013 09:52:00
Writing library : libebml v1.3.0 + libmatroska v1.4.0
Video
ID : 1
Format : AVC
Format/Info : Advanced Video Codec
Format profile : [url=mailto:[email protected]][email protected][/url]
Format settings, CABAC : Yes
Format settings, ReFrames : 8 frames
Codec ID : V_MPEG4/ISO/AVC
Duration : 1h 45mn
Bit rate : 1 850 Kbps
Width : 720 pixels
Height : 416 pixels
Display aspect ratio : 1.731
Frame rate mode : Constant
Frame rate : 25.000 fps
Color space : YUV
Chroma subsampling : 4:2:0
Bit depth : 8 bits
Scan type : Progressive
Bits/(Pixel*Frame) : 0.247
Stream size : 1.33 GiB (81%)
Title : Раскаленная суббота
Writing library : x264 core 125 r2208 d9d2288
Encoding settings : cabac=1 / ref=8 / deblock=1:-1:-1 / analyse=0x3:0x133 / me=umh / subme=9 / psy=1 / psy_rd=1.00:0.10 / mixed_ref=1 / me_range=32 / chroma_me=1 / trellis=2 / 8x8dct=1 / cqm=0 / deadzone=21,11 / fast_pskip=0 / chroma_qp_offset=-3 / threads=6 / lookahead_threads=1 / sliced_threads=0 / nr=0 / decimate=1 / interlaced=0 / bluray_compat=0 / constrained_intra=0 / bframes=3 / b_pyramid=2 / b_adapt=2 / b_bias=0 / direct=3 / weightb=1 / open_gop=0 / weightp=2 / keyint=250 / keyint_min=25 / scenecut=40 / intra_refresh=0 / rc_lookahead=60 / rc=2pass / mbtree=1 / bitrate=1850 / ratetol=1.0 / qcomp=0.60 / qpmin=10 / qpmax=51 / qpstep=4 / cplxblur=20.0 / qblur=0.5 / ip_ratio=1.40 / aq=1:1.00
Language : Russian
Default : Yes
Forced : No
Audio
ID : 2
Format : AC-3
Format/Info : Audio Coding 3
Mode extension : CM (complete main)
Format settings, Endianness : Big
Codec ID : A_AC3
Duration : 1h 45mn
Bit rate mode : Constant
Bit rate : 384 Kbps
Channel(s) : 6 channels
Channel positions : Front: L C R, Side: L R, LFE
Sampling rate : 48.0 KHz
Bit depth : 16 bits
Compression mode : Lossy
Stream size : 290 MiB (17%)
Title : Русский
Language : Russian
Default : Yes
Forced : No
Скриншоты:                
Other forum [Profile] [PM]
Display posts from previous:    
Reply to topic

The time now is: Today 21:49

All times are GMT + 3 Hours



You cannot post new topics in this forum
You cannot reply to topics in this forum
You cannot edit your posts in this forum
You cannot delete your posts in this forum
You cannot vote in polls in this forum
You cannot attach files in this forum
You cannot download files in this forum