Сегодня идет свободное скачивание без начисления Download

Три ниндзя: Костяшки вверх / 3 Ninjas Knuckle Up (Сангок Шин) (Боевик, Комедия, Семейный, 1995) DVDRip

Ответить на тему
 
Автор
Сообщение

Omen ®

Стаж: 4 года 1 месяц

Сообщений: 194390

Торрент-статистика

Пост 12-Июн-2013 16:33

[Цитировать]

Три ниндзя: Костяшки вверх
3 Ninjas Knuckle Up
- Русское название: Три ниндзя: Костяшки вверх
Оригинальное название: 3 Ninjas Knuckle Up
Год выпуска: 1995
Жанр: Боевик, Комедия, Семейный
Описание фильма:
Трое малолетних каратистов едут на лето к дедушке, ожидая, что каникулы будут скучными и занудными. Но оказались они очень веселыми, интересными и богатыми приключениями. Местный злодей устраивает свалку на территории индейцев, обижает маленьких, а наши герои разбираются с ним и его амбалами, выручая из беды симпатичную девочку и ее папу. А девочка мальчикам очень даже понравилась.
Режиссер: Сангок Шин
Актеры: Виктор Уонг, Чарлз Нэпьер, Майкл Тринор, Макс Эллиотт Слэйд, Чэд Пауэр, Кристл Лайтнинг, Патрик Килпатрик, Доналд Л. Шэнкс, Шелдон Питерс Уолфшилд, Николас Г. Рамус, Донал Лог, Винсент Скьявелли
Продолжительность: 01:24:27
Перевод: Многоголосый закадровый, Авторский одноголосый закадровый
Язык субтитров: Отсутствуют
Рип и Синхронизация звука: Falkony
Звуковая дорожка от: Shel

Дата мировой премьеры: 10.03.95
Видеокодек: Xvid
Битрейт видео: ~1734 kbps avg
Размер кадра: 720x384
Качество видео: DVDRip
Аудио 1: 48 kHz, AC3 Dolby Digital, 2/0 (L,R) ch, ~192 kbps | Профессиональный (многоголосый закадровый) - Первый канал
Аудио 2: 48 kHz, AC3 Dolby Digital, 2/0 (L,R) ch, ~192 kbps | Авторский (одноголосый закадровый) - Сергей Визгунов
Аудио 3: 48 kHz, AC3 Dolby Digital, 2/0 (L,R) ch, ~192 kbps | Авторский (одноголосый закадровый) - Леонид Володарский

О фильме

Эту картину я пересматривал бесчисленное множество раз. Бывает даже 2 раза на дню. И это стоит того. Герои заслуживают лестных отзывов, поскольку все смотрится на одном дыхании.
Простая картина, но с обилием великолепных прыжков, боевых сцен и естественно юмора. Многие уже и забыли про этот фильм, но в детстве я был без ума от него. Кто не мечтал стать настоящим ниндзя!
Желаю приятного просмотра.

MediaInfo

General
Complete name: C:\Users\Рифмоплет\Desktop\Ninjas.Knuckle.Up.(1995).DVDRip.avi
Format: AVI
Format/Info: Audio Video Interleave
File size: 1.38 GiB
Duration: 1h 24mn
Overall bit rate: 2 331 Kbps
Movie name: Ninjas.Knuckle.Up.(1995).DVDRip
Writing application: VirtualDubMod 1.5.10.2 (build 2542/release)
Copyright: Falkony
Video
ID: 0
Format: MPEG-4 Visual
Format profile: Advanced [email protected]
Format settings, BVOP: 2
Format settings, QPel: No
Format settings, GMC: No warppoints
Format settings, Matrix: Default (H.263)
Muxing mode: Packed bitstream
Codec ID: XVID
Codec ID/Hint: XviD
Duration: 1h 24mn
Bit rate: 1 736 Kbps
Width: 720 pixels
Height: 384 pixels
Display aspect ratio: 1.85:1
Frame rate: 25.000 fps
Color space: YUV
Chroma subsampling: 4:2:0
Bit: 8 bits
Scan type: Progressive
Compression mode: Lossy
Bits/(Pixel*Frame): 0.251
Stream size: 1.02 GiB (74%)
Writing library: XviD 1.2.1 (UTC 2008-12-04)
Audio #1
ID: 1
Format: AC-3
Format/Info: Audio Coding 3
Mode extension: CM (complete main)
Format settings, Endianness: Big
Codec ID: 2000
Duration: 1h 24mn
Bit rate mode: Constant
Bit rate: 192 Kbps
Channel(s): 2 channels
Channel positions: Front: L R
Sampling rate: 48.0 KHz
Bit depth: 16 bits
Compression mode: Lossy
Stream size: 116 MiB (8%)
Alignment: Split accross interleaves
Interleave, duration: 40 ms (1.00 video frame)
Interleave, preload duration: 500 ms
Title: 1 Kanal
Audio #2
ID: 2
Format: AC-3
Format/Info: Audio Coding 3
Mode extension: CM (complete main)
Format settings, Endianness: Big
Codec ID: 2000
Duration: 1h 24mn
Bit rate mode: Constant
Bit rate: 192 Kbps
Channel(s): 2 channels
Channel positions: Front: L R
Sampling rate: 48.0 KHz
Bit depth: 16 bits
Compression mode: Lossy
Stream size: 116 MiB (8%)
Alignment: Split accross interleaves
Interleave, duration: 40 ms (1.00 video frame)
Interleave, preload duration: 500 ms
Title: S.Vizgunov
Audio #3
ID: 3
Format: AC-3
Format/Info: Audio Coding 3
Mode extension: CM (complete main)
Format settings, Endianness: Big
Codec ID: 2000
Duration: 1h 24mn
Bit rate mode: Constant
Bit rate: 192 Kbps
Channel(s): 2 channels
Channel positions: Front: L R
Sampling rate: 48.0 KHz
Bit depth: 16 bits
Compression mode: Lossy
Stream size: 116 MiB (8%)
Alignment: Split accross interleaves
Interleave, duration: 40 ms (1.00 video frame)
Interleave, preload duration: 500 ms
Title: L.Volodarskiy
Скриншоты:
         
Вне форума [Профиль] [ЛС]
Показать сообщения:    
Ответить на тему

Текущее время: Сегодня 14:56

Часовой пояс: GMT + 3



Вы не можете начинать темы
Вы не можете отвечать на сообщения
Вы не можете редактировать свои сообщения
Вы не можете удалять свои сообщения
Вы не можете голосовать в опросах
Вы не можете прикреплять файлы к сообщениям
Вы не можете скачивать файлы