Сегодня идет свободное скачивание без начисления Download

71 фрагмент хронологии случайностей / 71 Fragmente einer Chronologie des Zufalls (Михаэль Ханеке) (Драма, 1994) DVDRip

Ответить на тему
 
Автор
Сообщение

Omen ®

Стаж: 4 года 1 месяц

Сообщений: 194359

Торрент-статистика

Пост 12-Июн-2013 16:40

[Цитировать]

71 фрагмент хронологии случайностей
71 Fragmente einer Chronologie des Zufalls
- Русское название: 71 фрагмент хронологии случайностей
Оригинальное название: 71 Fragmente einer Chronologie des Zufalls
Год выпуска: 1994
Жанр: Драма
Описание фильма:
Финальная картина «трилогии замораживания» трансформирует в 71 разобщенную сцену реальную историю об австрийском студенте, который в один прекрасный день вдруг в ярости набрасывается на первых встречных. 71 фрагмент выделяется отходом от расширенного исследования отдельной семьи, как это было в первых двух частях трилогии. Вместо этого, вспышка жестокости контекстуально помещается в некий срез общества: одинокий отец, пара с расстроенными взаимоотношениями, женщина, которая хочет усыновить ребенка, румынский иммигрант…
Режиссер: Михаэль Ханеке
Актеры: Габриэль Космин Урдес, Лукас Мико, Отто Грюнмандль, Удо Замель, Бранко Самаровски, Клаудия Мартини, Александр Пшилль, Клаус Хендл
Продолжительность: 00:01:35
Перевод: Многоголосый закадровый

Видеокодек: Xvid
Битрейт видео: ~1548 Кбит/сек
Размер кадра: 720х400
Качество видео: DVDRip
Аудиокодек: AC3
Аудио#1: 448 kbps, 6 ch - Русский многоголосый
Аудио#2: 192 kbps, 2 ch - Hемецкий оригинал

MediaInfo:

Общее
Полное имя : 71 фрагмент хронологии случайностей.avi
Формат : AVI
Формат/Информация : Audio Video Interleave
Размер файла : 1,46 Гбайт
Продолжительность : 1 ч. 35 м.
Общий поток : 2202 Кбит/сек
Программа кодирования : VirtualDubMod 1.5.10.2 (build 2540/release)
Библиотека кодирования : VirtualDubMod build 2540/release
Видео
Идентификатор : 0
Формат : MPEG-4 Visual
Профиль формата : Advanced [email protected]
Параметр BVOP формата : 2
Параметр QPel формата : Нет
Параметр GMC формата : Без точки перехода
Параметр матрицы формата : Выборочная
Режим смешивания : Сжатый битовый поток
Идентификатор кодека : XVID
Идентификатор кодека/Подсказка : XviD
Продолжительность : 1 ч. 35 м.
Битрейт : 1548 Кбит/сек
Ширина : 720 пикселей
Высота : 400 пикселей
Соотношение сторон : 16:9
Частота кадров : 23,976 кадра/сек
Цветовое пространство : YUV
Субдискретизация насыщенности : 4:2:0
Битовая глубина : 8 бит
Тип развёртки : Прогрессивная
Метод сжатия : С потерями
Бит/(Пиксели*Кадры) : 0.224
Размер потока : 1,03 Гбайт (70%)
Библиотека кодирования : XviD 1.2.1 (UTC 2008-12-04)
Аудио #1
Идентификатор : 1
Формат : AC-3
Формат/Информация : Audio Coding 3
Расширение режима : CM (complete main)
Параметр Endianness формата : Big
Идентификатор кодека : 2000
Продолжительность : 1 ч. 35 м.
Вид битрейта : Постоянный
Битрейт : 448 Кбит/сек
Каналы : 6 каналов
Расположение каналов : Front: L C R, Side: L R, LFE
Частота : 48,0 КГц
Битовая глубина : 16 бит
Метод сжатия : С потерями
Размер потока : 305 Мбайт (20%)
Выравнивание : Разделение по промежуткам
Продолжительность промежутка : 42 мс. (1,00 видеокадр)
Время предзагрузки промежутка : 500 мс.
Аудио #2
Идентификатор : 2
Формат : AC-3
Формат/Информация : Audio Coding 3
Расширение режима : CM (complete main)
Параметр Endianness формата : Big
Идентификатор кодека : 2000
Продолжительность : 1 ч. 35 м.
Вид битрейта : Постоянный
Битрейт : 192 Кбит/сек
Каналы : 2 канала
Расположение каналов : Front: L R
Частота : 48,0 КГц
Битовая глубина : 16 бит
Метод сжатия : С потерями
Размер потока : 131 Мбайт (9%)
Выравнивание : Разделение по промежуткам
Продолжительность промежутка : 42 мс. (1,00 видеокадр)
Время предзагрузки промежутка : 500 мс.
Скриншоты:
         
         
Вне форума [Профиль] [ЛС]
Показать сообщения:    
Ответить на тему

Текущее время: Сегодня 01:16

Часовой пояс: GMT + 3



Вы не можете начинать темы
Вы не можете отвечать на сообщения
Вы не можете редактировать свои сообщения
Вы не можете удалять свои сообщения
Вы не можете голосовать в опросах
Вы не можете прикреплять файлы к сообщениям
Вы не можете скачивать файлы