Сегодня идет свободное скачивание без начисления Download

Храброе сердце / Braveheart (Мэл Гибсон) (Боевик, Военный, Драма, 1995) HDRip

Ответить на тему
 
Автор
Сообщение

Omen ®

Стаж: 4 года 1 месяц

Сообщений: 194394

Торрент-статистика

Пост 12-Июн-2013 16:52

[Цитировать]

Храброе сердце / Braveheart - Русское название: Храброе сердце
Оригинальное название: Braveheart
Год выпуска: 1995
Производство: США
Жанр: Боевик, Военный, Драма
Описание фильма:
Действие фильма начинается в 1280 году в Шотландии. Это история легендарного национального героя Уильяма Уолласа, посвятившего себя борьбе с англичанами при короле Эдварде Длинноногом.
Он рано лишился отца, погибшего от рук англичан, и его забрал к себе дядя Оргайл, который дал ему хорошее образование в Европе. На родину Уильям возвращается уже взрослым человеком, мечтающем завести семью и жить мирной жизнью.
Но судьба распорядилась иначе. Его невесту убили англичане, и он начал свой крестовый поход за свободу.
Режиссер: Мэл Гибсон
Актеры: Мэл Гибсон, Софи Марсо, Патрик МакГуэн, Кэтрин МакКормак, Ангус Макфэдьен, Брендан Глисон, Дэвид О'Хара, Иэн Бэннен, Шон Лоулор, Сэнди Нелсон, Джеймс Космо, Шон МакГинли, Элан Толл, Брайан Кокс, Питер Хэнли
Продолжительность: 02:57:43
Перевод: Дублированный
Язык субтитров: Русские (английские надписи и французские диалоги)
Вид субтитров: Отдельным файлом

Дата мировой премьеры: 18 мая 1995
Дата выхода DVD релиза: 30 октября 2008, «Двадцатый Век Фокс СНГ»
Видеокодек: Xvid
Битрейт видео: ~756 kbps avg
Размер кадра: 672x288
Качество видео: HDRip
Аудиокодек: MP3, 2.0
Битрейт аудио: 112.00 kbps avg

MediaInfo

Общее
Полное имя : D:\Торренты на раздачу\Храброе сердце\Braveheart\Braveheart.avi
Формат : AVI
Формат/Информация : Audio Video Interleave
Размер файла : 1,09 Гбайт
Продолжительность : 2 ч. 57 м.
Общий поток : 878 Кбит/сек
Программа кодирования : VirtualDubMod 1.5.10.2 (build 2540/release)
Библиотека кодирования : VirtualDubMod build 2540/release
Видео
Идентификатор : 0
Формат : MPEG-4 Visual
Профиль формата : Advanced [email protected]
Параметр BVOP формата : 1
Параметр QPel формата : Нет
Параметр GMC формата : Без точки перехода
Параметр матрицы формата : Выборочная
Идентификатор кодека : XVID
Идентификатор кодека/Подсказка : XviD
Продолжительность : 2 ч. 57 м.
Битрейт : 757 Кбит/сек
Ширина : 672 пикселя
Высота : 288 пикселей
Соотношение сторон : 2,35:1
Частота кадров : 23,976 кадра/сек
Цветовое пространство : YUV
Субдискретизация насыщенности : 4:2:0
Битовая глубина : 8 бит
Тип развёртки : Прогрессивная
Метод сжатия : С потерями
Бит/(Пиксели*Кадры) : 0.163
Размер потока : 962 Мбайт (86%)
Библиотека кодирования : XviD 1.2.1 (UTC 2008-12-04)
Аудио
Идентификатор : 1
Формат : MPEG Audio
Версия формата : Version 1
Профиль формата : Layer 3
Идентификатор кодека : 55
Идентификатор кодека/Подсказка : MP3
Продолжительность : 2 ч. 57 м.
Вид битрейта : Постоянный
Битрейт : 112 Кбит/сек
Каналы : 2 канала
Частота : 48,0 КГц
Метод сжатия : С потерями
Размер потока : 142 Мбайт (13%)
Выравнивание : Соединение по промежуткам
Продолжительность промежутка : 42 мс. (1,00 видеокадр)
Время предзагрузки промежутка : 504 мс.
Библиотека кодирования : LAME3.98r
Настройки программы : -m s -V 4 -q 2 -lowpass 15.6 -b 112
Скриншоты:
         
Вне форума [Профиль] [ЛС]
Показать сообщения:    
Ответить на тему

Текущее время: Сегодня 22:50

Часовой пояс: GMT + 3



Вы не можете начинать темы
Вы не можете отвечать на сообщения
Вы не можете редактировать свои сообщения
Вы не можете удалять свои сообщения
Вы не можете голосовать в опросах
Вы не можете прикреплять файлы к сообщениям
Вы не можете скачивать файлы