Сегодня идет свободное скачивание без начисления Download

Свидание вслепую / Blind Date (Блейк Эдвардс) (Мелодрама, Комедия, 1987) HDTVRip [H.264/720р-LQ]

Ответить на тему
 
Автор
Сообщение

Omen ®

Стаж: 4 года 1 месяц

Сообщений: 194382

Торрент-статистика

Пост 13-Июн-2013 17:37

[Цитировать]

Свидание вслепую
Blind Date
-«'Do you recognize me? I used to be a respectable citizen.
I had a good job and a promising future. I made only one mistake - I went on a blind date. ...Anyone got $10,000 for bail?'»
- Русское название: Свидание вслепую
Оригинальное название: Blind Date
Год выпуска: 1987
Жанр: Мелодрама, Комедия
Производство: США / Delphi V Productions, ML Delphi Premier Productions, TriStar Pictures
Описание фильма:
Уолтер Дэвис — трудоголик, и вполне естественно, что все свое внимание он уделяет работе, а не личной жизни или внешности. Для очень важной деловой встречи в ресторане с новым партнером из Японии, Уолтеру потребовалась спутница.
Его брат посоветовал взять с собой очаровательную Надю, кузину его жены. Но есть одно но: Наде нельзя пить… совсем! К сожалению, это предупреждение Уолтер пропустил мимо ушей.
Режиссер: Блейк Эдвардс
Сценарий: Дейл Лонер
Продюсер: Тони Адамс, Триш Кароселли, Гари Хендлер
Композитор: Генри Манчини
Актеры: Ким Бейсингер, Брюс Уиллис, Джон Ларрокетт, Уильям Дэниелс, Джордж Коу, Марк Блум, Фил Хартмен, Стефани Фэраси, Элис Хёрсон, Грэм Старк
Продолжительность: 01:30:55
Перевод: Многоголосый закадровый, одноголосый закадровый

Дата мировой премьеры: 24 марта 1987
Видеокодек: MPEG-4 AVC/H.264
Битрейт видео: ~2700 Кбит/сек
Размер кадра: 1280x576
Качество видео: HDTVRip
Аудио 1: Русский, АС3 2.0, 192 kbps, 48 kHz (Многоголосый закадровый, НТВ+)
Аудио 2: Русский, АС3 2.0, 192 kbps, 48 kHz (Авторский одноголосый, А.Михалёв)
Аудио 3: Русский, АС3 2.0, 192 kbps, 48 kHz (Авторский одноголосый, А.Гаврилов)

Реценция с кинопоиска от alisalas:

Потрясающее… кино…
Комедия просто потрясающая. Смеяться можно, не переставая, что я и делаю, почти при каждом просмотре этого фильма. Такое забыть нереально…
Фильм лаконичный, смешной, ну и романтичный, конечно же. Все сцены замечательно сделаны и смотрятся они легко и непринужденно. Отрываться от фильма не хочется.
Пара Ким и Брюсс великолепно смотрятся на экране, я думаю, режиссер не прогадал, когда утвердил именно их, никто бы другой не зажег этот фильм так, как сделали это они!
Этот фильм хорошо «влил» Уиллиса в актёрскую карьеру…
Вечное уважение этой комедии от меня лично и
10 из 10

MediaInfo:

General
Unique ID : 207364233342678463062477365384783856730 (0x9C00E60D33E1BC929E8B22BC8FB4045A)
Complete name : H:\Downloads\Свидание вслепую.mkv
Format : Matroska
Format version : Version 4 / Version 2
File size : 2.08 GiB
Duration : 1h 30mn
Overall bit rate : 3 277 Kbps
Encoded date : UTC 2013-06-12 07:18:20
Writing application : mkvmerge v6.0.0 ('Coming Up For Air') built on Jan 20 2013 09:52:00
Writing library : libebml v1.3.0 + libmatroska v1.4.0
Video
ID : 1
Format : AVC
Format/Info : Advanced Video Codec
Format profile : [url=mailto:[email protected]][email protected][/url]
Format settings, CABAC : Yes
Format settings, ReFrames : 5 frames
Codec ID : V_MPEG4/ISO/AVC
Duration : 1h 30mn
Bit rate : 2 700 Kbps
Width : 1 280 pixels
Height : 576 pixels
Display aspect ratio : 2.222
Frame rate mode : Constant
Frame rate : 25.000 fps
Color space : YUV
Chroma subsampling : 4:2:0
Bit depth : 8 bits
Scan type : Progressive
Bits/(Pixel*Frame) : 0.146
Stream size : 1.67 GiB (80%)
Title : Blind Date
Writing library : x264 core 129 r2245 bc13772
Encoding settings : cabac=1 / ref=5 / deblock=1:0:0 / analyse=0x3:0x113 / me=umh / subme=9 / psy=1 / psy_rd=1.00:0.00 / mixed_ref=1 / me_range=32 / chroma_me=1 / trellis=1 / 8x8dct=1 / cqm=0 / deadzone=21,11 / fast_pskip=1 / chroma_qp_offset=-2 / threads=6 / lookahead_threads=1 / sliced_threads=0 / nr=0 / decimate=1 / interlaced=0 / bluray_compat=0 / constrained_intra=0 / bframes=3 / b_pyramid=2 / b_adapt=2 / b_bias=0 / direct=3 / weightb=1 / open_gop=1 / weightp=2 / keyint=250 / keyint_min=25 / scenecut=40 / intra_refresh=0 / rc_lookahead=50 / rc=2pass / mbtree=1 / bitrate=2700 / ratetol=1.0 / qcomp=0.60 / qpmin=10 / qpmax=51 / qpstep=4 / cplxblur=20.0 / qblur=0.5 / ip_ratio=1.40 / aq=1:1.00
Language : English
Default : Yes
Forced : No
Audio #1
ID : 2
Format : AC-3
Format/Info : Audio Coding 3
Mode extension : CM (complete main)
Format settings, Endianness : Big
Codec ID : A_AC3
Duration : 1h 30mn
Bit rate mode : Constant
Bit rate : 192 Kbps
Channel(s) : 2 channels
Channel positions : Front: L R
Sampling rate : 48.0 KHz
Bit depth : 16 bits
Compression mode : Lossy
Stream size : 125 MiB (6%)
Title : Многоголосый, НТВ+
Language : Russian
Default : Yes
Forced : No
Audio #2
ID : 3
Format : AC-3
Format/Info : Audio Coding 3
Mode extension : CM (complete main)
Format settings, Endianness : Big
Codec ID : A_AC3
Duration : 1h 30mn
Bit rate mode : Constant
Bit rate : 192 Kbps
Channel(s) : 2 channels
Channel positions : Front: L R
Sampling rate : 48.0 KHz
Bit depth : 16 bits
Compression mode : Lossy
Stream size : 125 MiB (6%)
Title : Авторский, Михалёв
Language : Russian
Default : No
Forced : No
Audio #3
ID : 4
Format : AC-3
Format/Info : Audio Coding 3
Mode extension : CM (complete main)
Format settings, Endianness : Big
Codec ID : A_AC3
Duration : 1h 30mn
Bit rate mode : Constant
Bit rate : 192 Kbps
Channel(s) : 2 channels
Channel positions : Front: L R
Sampling rate : 48.0 KHz
Bit depth : 16 bits
Compression mode : Lossy
Stream size : 125 MiB (6%)
Title : Авторский, Гаврилов
Language : Russian
Default : No
Forced : No
Скриншоты:                    
Вне форума [Профиль] [ЛС]
Показать сообщения:    
Ответить на тему

Текущее время: Сегодня 00:20

Часовой пояс: GMT + 3



Вы не можете начинать темы
Вы не можете отвечать на сообщения
Вы не можете редактировать свои сообщения
Вы не можете удалять свои сообщения
Вы не можете голосовать в опросах
Вы не можете прикреплять файлы к сообщениям
Вы не можете скачивать файлы