Сегодня идет свободное скачивание без начисления Download

Лётчик-испытатель / Test Pilot (1938) DVDRip

Ответить на тему
 
Автор
Сообщение

UndegraundMen ®

Стаж: 3 года 9 месяцев

Сообщений: 28329

Торрент-статистика

Пост 16-Июн-2013 03:01

[Цитировать]

Лётчик-испытатель / Test Pilot (1938) DVDRip
- Русское название: Лётчик-испытатель
Оригинальное название: Test Pilot
Год выпуска: 1938
Страна: США
Жанр: Драма
Перевод: Профессиональный (двухголосый, закадровый)
Субтитры: нет
Описание фильма: В этом фильме всё: и настоящая мужская дружба, и самопожертвование во имя этой дружбы, и настоящая любовь. Кроме того, это лучший фильм об авиации и лётчиках, о скоротечности их жизни по независящим от них причинам и о глубине переживаний жен и подруг каждую минуту осознающих, что неотвратимость потери столь дорогого человека неизбежна, и в то же время нужно жить и давать возможность ему заниматься своим призванием.
Режиссер: Виктор Флеминг
Актеры: Кларк Гейбл, Мирна Лой, Спенсер Трэйси, Лайонел Бэрримор, Сэмюэл С. Хиндс, Марджори Мэйн, Тед Пирсон, Глория Холден, Луис Джин Хейдт, Вирджиния Грей, Присцилла Лоусон, Клаудия Колман, Артур Эйлесуорт
Продолжительность: 01:59:14

Награды

Оскар, 1939 год
Номинации (3):
Лучший фильм
Лучший сюжет
Лучший монтаж
Видеокодек: XviD
Битрейт видео: ~1438Kbps
Размер кадра: 640x480
Качество видео: DVDRip
Аудио :AC3, 2 ch, 2 ch 192Kbps

MI

Общее
Полное имя : C:\Users\1\Downloads\Letchik.Ispitatel_DVDRip.avi
Формат : AVI
Формат/Информация : Audio Video Interleave
Размер файла : 1,36 Гбайт
Продолжительность : 1 ч. 59 м.
Общий поток : 1640 Кбит/сек
Программа кодирования : VirtualDubMod 1.5.10.2 (build 2540/release)
Библиотека кодирования : VirtualDubMod build 2540/release
Видео
Идентификатор : 0
Формат : MPEG-4 Visual
Профиль формата : Advanced [email protected]
Параметр BVOP формата : 1
Параметр QPel формата : Нет
Параметр GMC формата : Без точки перехода
Параметр матрицы формата : Default (MPEG)
Идентификатор кодека : XVID
Идентификатор кодека/Подсказка : XviD
Продолжительность : 1 ч. 59 м.
Битрейт : 1438 Кбит/сек
Ширина : 640 пикселей
Высота : 480 пикселей
Соотношение сторон : 4:3
Частота кадров : 25,000 кадров/сек
Цветовое пространство : YUV
Субдискретизация насыщенности : 4:2:0
Битовая глубина : 8 бит
Тип развёртки : Прогрессивная
Метод сжатия : С потерями
Бит/(Пиксели*Кадры) : 0.187
Размер потока : 1,20 Гбайт (88%)
Библиотека кодирования : XviD 1.2.0.dev47 (UTC 2006-11-01)
Аудио
Идентификатор : 1
Формат : AC-3
Формат/Информация : Audio Coding 3
Расширение режима : CM (complete main)
Идентификатор кодека : 2000
Продолжительность : 1 ч. 59 м.
Вид битрейта : Постоянный
Битрейт : 192 Кбит/сек
Каналы : 2 канала
Расположение каналов : Front: L R
Частота : 48,0 КГц
Битовая глубина : 16 бит
Метод сжатия : С потерями
Размер потока : 164 Мбайт (12%)
Выравнивание : Разделение по промежуткам
Продолжительность промежутка : 40 мс. (1,00 видеокадр)
Время предзагрузки промежутка : 500 мс.
Скриншоты:
         
         

Отзывы

Если вы хотите насладиться настоящей актерской игрой, увидеть скупую мужскую слезу Кларка Гейбла (причём заметьте, натуральную, а не искусственную!), восхититься истинно мужским поступком Спенсера Трэйси и без ума от Старого Доброго Золотого Века Голливуда, — то вам просто необходимо увидеть этот фильм! Буря позитива и просто хорошего настроения вам обеспечены!
Снято всё легко, задорно без всякого пафоса, высокопарных слов и натянутости сюжетных линий! Во многом это благодаря таланту режиссера, сумевшему разглядеть неприкрытое сходство и родство душ двух великих актеров в их кажущейся непохожести, и позволившему заиграть этому дуэту всеми гранями своего таланта! Они настолько гармонично сосуществуют в кадре, что на протяжении всего фильма нисколько не сомневаешься, что это действительно два закадычных друга: один пилот, другой - инструктор, сто лет знакомы, знают друг друга как облупленных и поэтому постоянно хохмят, балагурят и чудят. Такое невозможно сыграть или сымитировать, это можно только прожить и прочувствовать!
(Источник - www.kinopoisk.ru)
Такие фильмы можно смотреть подряд по несколько раз подряд. Герои-красавцы. Проблемы-объективны и преодолимы. Любовь- сразу и до гроба. Друзья-надежней стали. Прелесть!
Вне форума [Профиль] [ЛС]
Показать сообщения:    
Ответить на тему

Текущее время: Сегодня 22:20

Часовой пояс: GMT + 3



Вы не можете начинать темы
Вы не можете отвечать на сообщения
Вы не можете редактировать свои сообщения
Вы не можете удалять свои сообщения
Вы не можете голосовать в опросах
Вы не можете прикреплять файлы к сообщениям
Вы не можете скачивать файлы