Сегодня идет свободное скачивание без начисления Download

Миротворец / The Peacemaker (Мими Ледер / Mimi Leder) (1997) BDRip

Ответить на тему
 
Автор
Сообщение

Nugeiro ®

Пол:

Стаж: 5 лет 8 месяцев

Сообщений: 2242

Откуда: Украина, Шостка

Торрент-статистика

Пост 20-Авг-2011 08:12

[Цитировать]

Миротворец / The Peacemaker (1997) BDRip
«How do you get the world's attention?»
-
Русское название: Миротворец
Оригинальное название: The Peacemaker
Год выпуска: 1997
Производство: США
Жанр: Боевик, Триллер
Режиссер: Мими Ледер / Mimi Leder
Актеры: Джордж Клуни, Николь Кидман, Марчел Юреш, Александр Балуев, Рене Медвесек, Гари Вернтц, Рэндолл Батинкофф, Джим Хейни, Александр Штробель, Холт МакКэллани.
Описание фильма:
Сюжет фильма основан на реальных событиях, которые недавно стали известны благодаря раскрытым секретным архивам. Русский поезд, который везет ядерные ракеты с целью их уничтожения, частично поврежден взрывом где-то в отдаленном районе на юге России. Соответствующие сигналы поступают в ядерный центр американского Белого Дома. Вскоре выясняется, что оружие находится в руках международных террористов…
Продолжительность: 02:03:50
Перевод #1: Профессиональный (двухголосый, закадровый) [С лицензии R1]
Перевод #2: Профессиональный (двухголосый, закадровый) [С лицензии R5]
Звук. дорожка #3: Оригинал (Английский)
Релиз:
Рейтинг R - Детям до 17 лет обязательно присутствие родителей
Видеокодек: XviD
Битрейт видео: ~2009 kb/s
Размер кадра: 704 х 304
Аудиокодек:AC3 Dolby Digital
Аудио #1: 448 kb/s, 6ch, 48.0KHz, Front: L C R, Side: L R, LFE - Русский [С лицензии R1]
Аудио #2: 448 kb/s, 6ch, 48.0KHz, Front: L C R, Side: L R, LFE - Русский [С лицензии R5]
Аудио #3: 448 kb/s, 6ch, 48.0KHz, Front: L C R, Side: L R, LFE - Оригинальная дорожка (Английский)

MediaInfo

Код:
Полное имя                       : D:\~D\Mirotvorec.1997.BDRip.avi
Формат                           : AVI
Формат/Информация                : Audio Video Interleave
Профиль формата                  : OpenDML
Размер файла                     : 2,92 Гбайт
Продолжительность                : 2 ч. 3 м.
Общий поток                      : 3374 Кбит/сек
Название фильма                  : The Peacemaker (1997) BDRip
Режиссёр                         : danis92 (BD-Remux)
Программа кодирования            : VirtualDubMod 1.5.10.2 (build 2542/release)
Правообладатель                  : http://hqrips.do.am/
Примечание                       : R.G. HQRips
Видео
Идентификатор                    : 0
Формат                           : MPEG-4 Visual
Профиль формата                  : Advanced [email protected]
Параметр BVOP формата            : 1
Параметр QPel формата            : Нет
Параметр GMC формата             : Без точки перехода
Параметр матрицы формата         : Выборочная
Идентификатор кодека             : XVID
Идентификатор кодека/Подсказка   : XviD
Продолжительность                : 2 ч. 3 м.
Битрейт                          : 2009 Кбит/сек
Ширина                           : 704 пикс.
Высота                           : 304 пикс.
Соотношение сторон               : 2,35:1
Частота кадров                   : 23,976 кадр/сек
Цветовое пространство            : YUV
Подвыборка цветности             : 4:2:0
Битовая глубина                  : 8 бит
Тип развёртки                    : Прогрессивная
Метод сжатия                     : С потерями
Бит/(Пиксели*Кадры)              : 0.391
Размер потока                    : 1,74 Гбайт (60%)
Библиотека кодирования           : XviD 1.2.1 (UTC 2008-12-04)
Аудио #1
Идентификатор                    : 1
Формат                           : AC-3
Формат/Информация                : Audio Coding 3
Расширение режима                : CM (complete main)
Идентификатор кодека             : 2000
Продолжительность                : 2 ч. 3 м.
Вид битрейта                     : Постоянный
Битрейт                          : 448 Кбит/сек
Каналы                           : 6 каналов
Расположение каналов             : Front: L C R, Side: L R, LFE
Частота                          : 48,0 КГц
Битовая глубина                  : 16 бит
Метод сжатия                     : С потерями
Размер потока                    : 397 Мбайт (13%)
Выравнивание                     : Разделение по промежуткам
Продолжительность промежутка     : 42  мс. (1,00 видеокадр)
Время предзагрузки промежутка    : 500 ms
Аудио #2
Идентификатор                    : 2
Формат                           : AC-3
Формат/Информация                : Audio Coding 3
Расширение режима                : CM (complete main)
Идентификатор кодека             : 2000
Продолжительность                : 2 ч. 3 м.
Вид битрейта                     : Постоянный
Битрейт                          : 448 Кбит/сек
Каналы                           : 6 каналов
Расположение каналов             : Front: L C R, Side: L R, LFE
Частота                          : 48,0 КГц
Битовая глубина                  : 16 бит
Метод сжатия                     : С потерями
Размер потока                    : 397 Мбайт (13%)
Выравнивание                     : Разделение по промежуткам
Продолжительность промежутка     : 42  мс. (1,00 видеокадр)
Время предзагрузки промежутка    : 500 ms
Аудио #3
Идентификатор                    : 3
Формат                           : AC-3
Формат/Информация                : Audio Coding 3
Расширение режима                : CM (complete main)
Идентификатор кодека             : 2000
Продолжительность                : 2 ч. 3 м.
Вид битрейта                     : Постоянный
Битрейт                          : 448 Кбит/сек
Каналы                           : 6 каналов
Расположение каналов             : Front: L C R, Side: L R, LFE
Частота                          : 48,0 КГц
Битовая глубина                  : 16 бит
Метод сжатия                     : С потерями
Размер потока                    : 397 Мбайт (13%)
Выравнивание                     : Разделение по промежуткам
Продолжительность промежутка     : 42  мс. (1,00 видеокадр)
Время предзагрузки промежутка    : 500 ms
Скриншоты:      

_________________


Последний раз редактировалось: Nugeiro (2011-08-20 10:35), всего редактировалось 1 раз
Вне форума [Профиль] [ЛС]
Показать сообщения:    
Ответить на тему

Текущее время: Сегодня 16:39

Часовой пояс: GMT + 3



Вы не можете начинать темы
Вы не можете отвечать на сообщения
Вы не можете редактировать свои сообщения
Вы не можете удалять свои сообщения
Вы не можете голосовать в опросах
Вы не можете прикреплять файлы к сообщениям
Вы не можете скачивать файлы