Сегодня идет свободное скачивание без начисления Download

Кровавый спорт 4: Цвет Тьмы, Черное кумитэ / Bloodsport 4: The Dark Kumite / Bloodsport 4: Final Chapter, The (Элвис Рестайно) (Боевик, 1999) DVDRip

Ответить на тему
 
Автор
Сообщение

Omen ®

Стаж: 4 года 1 месяц

Сообщений: 194359

Торрент-статистика

Пост 17-Июн-2013 10:05

[Цитировать]

Кровавый спорт 4: Цвет Тьмы, Черное кумитэ
Bloodsport 4: The Dark Kumite
Bloodsport 4: Final Chapter, The
- Русское название: Кровавый спорт 4: Цвет Тьмы, Черное кумитэ
Оригинальное название: Bloodsport 4: The Dark Kumite / Bloodsport 4: Final Chapter, The
Год выпуска: 1999
Жанр: Боевик
Описание фильма:
В тюрьме строгого режима между заключенными нелегально устраиваются бои без правил. Сильнейших отбирают для особого турнира,
где в живых остается только победитель. Полицейский Келлер (Дэниел Бернхардт) проникает в тюрьму под видом преступника,
чтобы найти организаторов этих боев. Выяснить все до конца он сможет только одним способом – попав на главный турнир.
Режиссер: Элвис Рестайно
Актеры: Дэниэл Бернхард, Стефанос Милтсакакис, Майкл Кравик, Дерек Макграт, Лайза Стотхард, Дэвид Роу, Деннис ла Валле, Кристин Марэ, Иван Иванов
Продолжительность: 01:29:32
Перевод: Многоголосый закадровый
Вид субтитров: Отдельным файлом
Язык субтитров: Русский

Видеокодек: Xvid
Битрейт видео: ~1258 Кбит/с
Размер кадра: 672x496
Качество видео: DVDRip
Аудио#1: Русский AC3 6 ch (Front: L C R, Side: L R, LFE) 448 Кбит/с
Аудио#2: Английский AC3 6 ch (Front: L C R, Side: L R, LFE) 448 Кбит/с

MediaInfo

General
Complete name : D:\video\Кровавый Спорт 4. Цвет Тьмы (1999)\Кровавый Спорт 4. Цвет тьмы (1999).avi
Format : AVI
Format/Info : Audio Video Interleave
File size : 1.35 GiB
Duration : 1h 29mn
Overall bit rate : 2 164 Kbps
Writing application : VirtualDubModRus 1.5.10.2 (build 2542/release)
Writing library : VirtualDubMod build 2542/release
Video
ID : 0
Format : MPEG-4 Visual
Format profile : Advanced [email protected]
Format settings, BVOP : 1
Format settings, QPel : No
Format settings, GMC : No warppoints
Format settings, Matrix : Default (MPEG)
Muxing mode : Packed bitstream
Codec ID : XVID
Codec ID/Hint : XviD
Duration : 1h 29mn
Bit rate : 1 253 Kbps
Width : 672 pixels
Height : 496 pixels
Display aspect ratio : 4:3
Frame rate : 25.000 fps
Color space : YUV
Chroma subsampling : 4:2:0
Bit depth : 8 bits
Scan type : Progressive
Compression mode : Lossy
Bits/(Pixel*Frame) : 0.150
Stream size : 803 MiB (58%)
Writing library : XviD 1.2.0.dev47 (UTC 2006-11-01)
Audio #1
ID : 1
Format : AC-3
Format/Info : Audio Coding 3
Mode extension : CM (complete main)
Format settings, Endianness : Big
Codec ID : 2000
Duration : 1h 29mn
Bit rate mode : Constant
Bit rate : 448 Kbps
Channel(s) : 6 channels
Channel positions : Front: L C R, Side: L R, LFE
Sampling rate : 48.0 KHz
Bit depth : 16 bits
Compression mode : Lossy
Stream size : 287 MiB (21%)
Alignment : Split accross interleaves
Interleave, duration : 40 ms (1.00 video frame)
Interleave, preload duration : 500 ms
Audio #2
ID : 2
Format : AC-3
Format/Info : Audio Coding 3
Mode extension : CM (complete main)
Format settings, Endianness : Big
Codec ID : 2000
Duration : 1h 29mn
Bit rate mode : Constant
Bit rate : 448 Kbps
Channel(s) : 6 channels
Channel positions : Front: L C R, Side: L R, LFE
Sampling rate : 48.0 KHz
Bit depth : 16 bits
Compression mode : Lossy
Stream size : 287 MiB (21%)
Alignment : Split accross interleaves
Interleave, duration : 40 ms (1.00 video frame)
Interleave, preload duration : 500 ms
Скриншоты:
       
Вне форума [Профиль] [ЛС]
Похожие темы
Форум Тема Автор Торрент Отв. Посл. сообщение
./templates/default/images/folder_dl.gif Книги для IPhone, IPod, Apple Роллинс Джеймс и Кантрелл Ребекка - Орден сангвинистов. Книга 1. Кровавое евангелие [Stix37 (ЛИ), 2016, Триллер/Приключения, 128 kbps], M4B, (ИСПРАВЛЕННАЯ РАЗДАЧА) VHS
1 | 0

1 | 395

1

2016-03-08 17:42
VHS Последнее
Показать сообщения:    
Ответить на тему

Текущее время: Сегодня 14:47

Часовой пояс: GMT + 3



Вы не можете начинать темы
Вы не можете отвечать на сообщения
Вы не можете редактировать свои сообщения
Вы не можете удалять свои сообщения
Вы не можете голосовать в опросах
Вы не можете прикреплять файлы к сообщениям
Вы не можете скачивать файлы